Доктор Стрэндж

Лицензия

Добыча

Дубляж

Уэнсдэй

1 сезон

Тор

Дубляж

В эфире

Дубляж

Там, где раки поют

MVO

Властелин колец

1 сезон

Deluxe

pack

Рекомендуем

30

Пиратка

ВАЖНО

ВАЖНО

Ghostwire

Пиратка

jed

RePack

nioh2

RePack

RDR2

RePack

NEED FOR SPEED™ PAYBACK

RePack

скачать торрент

Кинопоиск HD

Острые козырьки 6 сезон

6 сезон

FAR CRY 6

RePack

скачать торрент

Лицензия

скачать торрент

MVO

1

1 сезон

скачать торрент

1 сезон

скачать торрент

Лицензия

  

Воспламеняющая взглядом / Firestarter (Кит Томас) [2022, Ужасы, фантастика, триллер, драма, UHD WEB-DL-HEVC 2160p] Дубляж [Лицензия]

Воспламеняющая взглядом через торрент pb.wtf

Раздают: 1 [ 0 KB/s ]
Размер: 10.16 GB | Добавлен: 3 мес. 28 д. назад | Торрент скачан:59 раз
Смотреть онлайн | Скачать   

09-08-2022 01:45 Воспламеняющая взглядом Скачать торрент  

Воспламеняющая взглядом
Firestarter

Год выпуска: 2022
Страна: США
Выпущено: Blumhouse Productions, Angry Adam Productions, BoulderLight Pictures
Жанр: Ужасы, фантастика, триллер, драма
Продолжительность: 01:34:18
Перевод: Дублированный | Лицензия
Субтитры: Русские (Forced, full), английские

Режиссер: Кит Томас

rating

В ролях: Райан Кира Армстронг, Зак Эфрон, Глория Рубен, Кертвуд Смит, Сидни Леммон, Майкл Грейес, Тина Юнг, Невен Пайкич, Ланетт Уэр, Гэвин Макивер-Райт

Описание: Юная Чарли МакДжи пытается совладать со своей способностью поджигать вещи силой разума. «Воспламеняющая взглядом» — ремейк фильма 1984 года с Дрю Бэрримор.

Качество: UHD WEB-DL-HEVC 2160p
Формат: MKV

Видео: 3840x1600 at 23.976 fps, MPEG-H HEVC HDR ~ 14400 kbps avg
Аудио #01: 48 kHz, AC3, 5.1, 384 Kbps | Дублированный | Лицензия | RUS |
Аудио #02: 48 kHz, AC3, 5.1, 640 Kbps | Оригинал | ENG |
скриншот  скриншот  скриншот  скриншот  скриншот  

General
Unique ID : 163986678949324574781148084775245168927 (0x7B5EAF80009EFD92F002E2B1ABF5C11F)
Complete name : D:Firestarter.2022.WEB-DL.2160p.HDR.seleZen.mkv
Format : Matroska
Format version : Version 4
File size : 10.2 GiB
Duration : 1 h 34 min
Overall bit rate : 15.4 Mb/s
Movie name : Firestarter 2022 from seleZen
Encoded date : UTC 2022-08-08 17:31:00
Writing application : mkvmerge v59.0.0 ('Shining Star') 64-bit
Writing library : libebml v1.4.2 + libmatroska v1.6.4

Video
ID : 1
Format : HEVC
Format/Info : High Efficiency Video Coding
Format profile : Main [email protected]@High
HDR format : SMPTE ST 2086, HDR10 compatible
Codec ID : V_MPEGH/ISO/HEVC
Duration : 1 h 34 min
Bit rate : 14.4 Mb/s
Width : 3 840 pixels
Height : 1 600 pixels
Display aspect ratio : 2.40:1
Frame rate mode : Constant
Frame rate : 23.976 FPS
Color space : YUV
Chroma subsampling : 4:2:0 (Type 2)
Bit depth : 10 bits
Bits/(Pixel*Frame) : 0.098
Stream size : 9.49 GiB (93%)
Default : Yes
Forced : No
Color range : Limited
Color primaries : BT.2020
Transfer characteristics : PQ
Matrix coefficients : BT.2020 non-constant
Mastering display color pri: Display P3
Mastering display luminance: min: 0.0050 cd/m2, max: 1000 cd/m2
Maximum Content Light Level: 1071 cd/m2
Maximum Frame-Average Light: 215 cd/m2

Audio #1
ID : 2
Format : AC-3
Format/Info : Audio Coding 3
Commercial name : Dolby Digital
Codec ID : A_AC3
Duration : 1 h 34 min
Bit rate mode : Constant
Bit rate : 384 kb/s
Channel(s) : 6 channels
Channel layout : L R C LFE Ls Rs
Sampling rate : 48.0 kHz
Frame rate : 31.250 FPS (1536 SPF)
Compression mode : Lossy
Stream size : 259 MiB (2%)
Title : Дубляж
Language : Russian
Service kind : Complete Main
Default : Yes
Forced : Yes

Audio #2
ID : 3
Format : AC-3
Format/Info : Audio Coding 3
Commercial name : Dolby Digital
Codec ID : A_AC3
Duration : 1 h 34 min
Bit rate mode : Constant
Bit rate : 640 kb/s
Channel(s) : 6 channels
Channel layout : L R C LFE Ls Rs
Sampling rate : 48.0 kHz
Frame rate : 31.250 FPS (1536 SPF)
Compression mode : Lossy
Stream size : 432 MiB (4%)
Title : Original
Language : English
Service kind : Complete Main
Default : No
Forced : No

Text #1
ID : 4
Format : UTF-8
Codec ID : S_TEXT/UTF8
Codec ID/Info : UTF-8 Plain Text
Duration : 1 h 11 min
Bit rate : 1 b/s
Frame rate : 0.005 FPS
Count of elements : 20
Stream size : 763 Bytes (0%)
Title : Forced
Language : Russian
Default : Yes
Forced : Yes

Text #2
ID : 5
Format : UTF-8
Codec ID : S_TEXT/UTF8
Codec ID/Info : UTF-8 Plain Text
Duration : 1 h 30 min
Bit rate : 62 b/s
Frame rate : 0.185 FPS
Count of elements : 1004
Stream size : 41.2 KiB (0%)
Title : Full
Language : Russian
Default : No
Forced : No

Text #3
ID : 6
Format : UTF-8
Codec ID : S_TEXT/UTF8
Codec ID/Info : UTF-8 Plain Text
Duration : 1 h 24 min
Bit rate : 46 b/s
Frame rate : 0.196 FPS
Count of elements : 997
Stream size : 28.8 KiB (0%)
Title : Full
Language : English
Default : No
Forced : No

Text #4
ID : 7
Format : UTF-8
Codec ID : S_TEXT/UTF8
Codec ID/Info : UTF-8 Plain Text
Duration : 1 h 28 min
Bit rate : 50 b/s
Frame rate : 0.220 FPS
Count of elements : 1163
Stream size : 32.8 KiB (0%)
Title : SDH
Language : English
Default : No
Forced : No

Menu
00:00:00.000 : Chapter 01
00:02:55.467 : Chapter 02
00:09:33.740 : Chapter 03
00:13:53.249 : Chapter 04
00:17:04.565 : Chapter 05
00:23:46.008 : Chapter 06
00:29:17.297 : Chapter 07
00:35:31.963 : Chapter 08
00:40:17.540 : Chapter 09
00:45:21.177 : Chapter 10
00:49:35.890 : Chapter 11
00:56:08.657 : Chapter 12
01:00:50.480 : Chapter 13
01:06:27.275 : Chapter 14
01:10:46.617 : Chapter 15
01:13:14.765 : Chapter 16
01:19:03.530 : Chapter 17
01:23:04.146 : Chapter 18
01:28:24.007 : Chapter 19
01:30:20.498 : Chapter 20




Скачать Воспламеняющая взглядом через торрент https://i120.fastpic.org/big/2022/0808/34/30be2df7e2f258f82db5535388c54b34.jpg Скачать, смотреть онлайн Воспламеняющая взглядом бесплантно в хорошем качестве Описание: Юная Чарли МакДжи пытается совладать со своей способностью поджигать вещи силой разума. «Воспламеняющая взглядом» — ремейк фильма ... 10 10 4
Торрент: Зарегистрирован [2022-08-09 01:45] · скачан: 59 раз
Статус: √ проверено
Размер: 10.16 GB
Как cкачать? Как скачать Воспламеняющая взглядом через торрент | UTorrent

% Раздел Тема Автор DL S | L
Фильмы 2022 [DVDrip, WEB-DLRip, HDrip] (DUB, MVO) [ 1.82 GB ] Воспламеняющая взглядом / Firestarter | Лицензия | BDRip-AVC Lithuania Скачать
2 | 0
Фильмы 2022 [DVDrip, WEB-DLRip, HDrip] (DUB, MVO) [ 710 MB ] Воспламеняющая взглядом / Firestarter | Лицензия | HDRip, Дубляж coc900 Скачать
1 | 0
Фильмы [HD 720p, 1080p] (Хороший звук DUB, MVO) [ 4.77 GB ] Воспламеняющая взглядом / Firestarter | Лицензия | 720p bober100 Скачать
3 | 0
Фильмы 2022 [DVDrip, WEB-DLRip, HDrip] (DUB, MVO) [ 1.64 GB ] Воспламеняющая взглядом / Firestarter | Лицензия | BDRip-AVC bober100 Скачать
2 | 0
Фильмы 2022 [DVDrip, WEB-DLRip, HDrip] (DUB, MVO) [ 1.41 GB ] Воспламеняющая взглядом / Firestarter | Лицензия | BDRip bober100 Скачать
3 | 0
Фильмы 2022 [DVDrip, WEB-DLRip, HDrip] (DUB, MVO) [ 1.56 GB ] Воспламеняющая взглядом / Firestarter | Jaskier | DLRip-AVC Lithuania Скачать
3 | 0
Фильмы (Blu-ray, BD-Remux, HDDVD) [ 25.59 GB ] Воспламеняющая взглядом / Firestarter | Лицензия | BD Remux 1080p bober100 Скачать
1 | 0

28-11-2019 20:33  


Отключить вcю реклaмy на сайте, в т.ч. и в плеере онлайн просмотра!

    Дорогой пользователь! Огромная просьба, поблагодарите релизера, оцените раздачу и оставьте свои комментарий, если Вы скачали Воспламеняющая взглядом через торрент бесплатно!!
    Комментировать посты могут только пользователи прошедшие не сложную регистрацию
    Показать сообщения:    


    Воспламеняющая взглядом через торрент
    Скачать бесплатно Воспламеняющая взглядом
    Воспламеняющая взглядом скачать торрент
    Воспламеняющая взглядом смотреть онлайн
    Cкачать фильм Воспламеняющая взглядом бесплатно
    Воспламеняющая взглядом скачать торрент в хорошем качестве
    Воспламеняющая взглядом смотреть онлайн бесплатно в хорошем качестве
    Вы не можете начинать темы
    Вы не можете отвечать на сообщения
    Вы не можете редактировать свои сообщения
    Вы не можете удалять свои сообщения
    Вы не можете голосовать в опросах
    Вы не можете прикреплять файлы к сообщениям
    Вы можете скачивать файлы
    Воспламеняющая взглядом / Firestarter [2022, Ужасы, фантастика, триллер, драма, UHD WEB-DL-HEVC 2160p] Дубляж [Лицензия] смотреть онлайн, скачать торрент picoco.icu