Достать ножи: Стеклянная луковица

MVO

Добыча

Дубляж

Уэнсдэй

1 сезон

Тор

Дубляж

13 клиническая

1 сезон

Жестокая ночь

MVO

Одни из нас

1 сезон

Deluxe

pack

Рекомендуем

30

Пиратка

ВАЖНО

ВАЖНО

Ghostwire

Пиратка

jed

RePack

nioh2

RePack

RDR2

RePack

NEED FOR SPEED™ PAYBACK

RePack

скачать торрент

Кинопоиск HD

Острые козырьки 6 сезон

6 сезон

FAR CRY 6

RePack

скачать торрент

Лицензия

скачать торрент

MVO

1

1 сезон

скачать торрент

1 сезон

скачать торрент

Лицензия

  

Я есть Грут / I Am Groot / Сезон: 1 / Серии: 1-5 из 5 (Керстен Лепоре) [2022, Мультфильм, фантастика, фэнтези, боевик, комедия, приключения, WEB-DL 1080p] MVO [LostFilm]

Я есть Грут через торрент pb.wtf

Раздают: 1 [ 0 KB/s ]
Размер: 1.08 GB | Добавлен: 5 мес. 27 д. назад | Торрент скачан:451 раз
Смотреть онлайн | Скачать | Поддержите нас   

10-08-2022 17:55 Я есть Грут Скачать торрент  

Я есть Грут
I Am Groot

Год выпуска: 2022
Страна: США
Студия: Marvel Studios Inc.
Жанр: Мультфильм, фантастика, фэнтези, боевик, комедия, приключения
Продолжительность: ~ 00:04:00 серия
Перевод: Профессиональный многоголосый | LostFilm
Субтитры: Русские (Full |Где тексты, Лебовски?|), английские (SDH)

Режиссер: Керстен Лепоре

rating

В ролях: Вин Дизель, Брэдли Купер

Описание: «Я есть Грут» — серия анимационных короткометражек о приключениях и шалостях самого умильного члена команды Стражи Галактики, разумного деревца Грута в период, когда он был еще малолетним сорванцом. Четырехминутные похождения разумного саженца в разных уголках галактики разворачиваются между событиями первого и второго фильмов Джеймса Ганна, но практически не влияют на развитие КВМ. Они призваны развлечь и повеселить зрителей выдумками немногословного, но очень изобретательного фантазера Грута. Его поведение похоже одновременно на баловство детей, щенков или таких же симпатичных знатоков одной фразы — Миньонов. А фотореалистичная анимация студии Luma Pictures позволит познакомиться с новыми мирами и видами Галактики. К озвучанию трех знакомых Груту слов, которые тем не менее обладают сотней разных смыслов, вернулся Вин Дизель. Кроме того, фанаты могут рассчитывать на новую встречу еще с одним любимцем — реактивным енотом Ракетой.

Чем бы ни занимался малыш Грут (Вин Дизель), все у него превращается в нескончаемое веселое приключение. Этот сорванец даже такую простую рутину, как прием ванны, может превратить в катастрофу. А уж что говорить о его знакомстве с новым народом крошечных инопланетных личинок! И совсем нельзя оставлять Грута одного на корабле, а то того и гляди получишь пробоину в обшивке, затопление и пожар одновременно. Но разве можно сердиться на этого очаровательного саженца, который всего лишь хочет завести новых друзей, победить в зажигательном танцевальном баттле или нарисовать свою семью — отважных Стражей Галактики?..

Качество: WEB-DL 1080p
Формат: MKV

Видео: 1920x1080 at 24.000 fps, MPEG-4 AVC, ~5200 kbps avgм
Аудио#1: Russian: 48 kHz, AC3, 2/0 (L,R) ch, ~384 kbps avg |LostFilm|
Аудио#2: English: 48 kHz, E-AC3, 3/2 (L,C,R,l,r) + LFE ch, ~768 kbps avg
скриншот  скриншот  скриншот  скриншот  

Общее
Уникальный идентификатор : 288095681989803609609910697197320907819 (0xD8BD35C7C1800340D9094EE4FAC5AC2B)
Полное имя : D:I.Am.Groot.S01.1080p.LF_[rutor]\I.Am.Groot.S01E01.mkv
Формат : Matroska
Версия формата : Version 4
Размер файла : 183 Мбайт
Продолжительность : 4 м. 3 с.
Режим общего битрейта : Переменный
Общий поток : 6 291 Кбит/сек
Дата кодирования : UTC 2022-08-10 17:19:04
Программа кодирования : mkvmerge v51.0.0 ('I Wish') 64-bit
Библиотека кодирования : libebml v1.4.0 + libmatroska v1.6.2

Видео
Идентификатор : 1
Формат : AVC
Формат/Информация : Advanced Video Codec
Профиль формата : [email protected]
Настройки формата : CABAC / 4 Ref Frames
Параметр CABAC формата : Да
Параметр RefFrames формата : 4 кадра
Идентификатор кодека : V_MPEG4/ISO/AVC
Продолжительность : 4 м. 3 с.
Вид битрейта : Переменный
Битрейт : 5 194 Кбит/сек
Максимальный битрейт : 12,7 Мбит/сек
Ширина : 1 920 пикселей
Высота : 1 080 пикселей
Соотношение сторон : 16:9
Режим частоты кадров : Постоянный
Частота кадров : 24,000 кадра/сек
Цветовое пространство : YUV
Субдискретизация насыщенности : 4:2:0
Битовая глубина : 8 бит
Тип развёртки : Прогрессивная
Бит/(Пиксели*Кадры) : 0.101
Размер потока : 146 Мбайт (80%)
Язык : English
Default : Да
Forced : Нет
Цветовой диапазон : Limited
Основные цвета : BT.709
Характеристики трансфера : BT.709
Коэффициенты матрицы : BT.709

Аудио #1
Идентификатор : 2
Формат : AC-3
Формат/Информация : Audio Coding 3
Коммерческое название : Dolby Digital
Идентификатор кодека : A_AC3
Продолжительность : 4 м. 3 с.
Вид битрейта : Постоянный
Битрейт : 384 Кбит/сек
Каналы : 2 канала
Channel layout : L R
Частота : 48,0 КГц
Частота кадров : 31,250 кадров/сек (1536 SPF)
Метод сжатия : С потерями
Размер потока : 11,2 Мбайт (6%)
Язык : Russian
Service kind : Complete Main
Default : Да
Forced : Нет

Аудио #2
Идентификатор : 3
Формат : E-AC-3 JOC
Формат/Информация : Enhanced AC-3 with Joint Object Coding
Коммерческое название : Dolby Digital Plus with Dolby Atmos
Идентификатор кодека : A_EAC3
Продолжительность : 4 м. 3 с.
Вид битрейта : Постоянный
Битрейт : 768 Кбит/сек
Каналы : 6 каналов
Channel layout : L R C LFE Ls Rs
Частота : 48,0 КГц
Частота кадров : 31,250 кадров/сек (1536 SPF)
Метод сжатия : С потерями
Размер потока : 22,3 Мбайт (12%)
Язык : English
Service kind : Complete Main
Default : Нет
Forced : Нет
Complexity index : 16
Number of dynamic objects : 15
Bed channel count : 1 канал
Bed channel configuration : LFE

Текст #1
Идентификатор : 4
Формат : UTF-8
Идентификатор кодека : S_TEXT/UTF8
Идентификатор кодека/Информация : UTF-8 Plain Text
Язык : Russian
Default : Нет
Forced : Нет

Текст #2
Идентификатор : 5
Формат : UTF-8
Идентификатор кодека : S_TEXT/UTF8
Идентификатор кодека/Информация : UTF-8 Plain Text
Заголовок : SDH
Язык : English
Default : Нет
Forced : Нет

Когда раздача ведётся путём добавления новых серий, при каждом добавлении создётся новый торрент. Чтобы начать докачку новой серии, пользователям необходимо сделать следующее:
(1) остановить скачивание,
(2) удалить старый торрент у себя из клиента (старые серии удалять не надо),
(3) скачать новый торрент и запустить его у себя в клиенте вместо старого, при этом указать клиенту путь в старую папку, куда и должно происходить скачивание новых серий.
Ваш клиент при этом должен произвести хеширование (проверку) старой папки (если не производит сам - помогите ему сделать это), и будет докачивать только те серии, которых у вас ещё нет. Старые серии при этом не удаляются, а продолжают раздаваться!
Eсли вы уже удалили старые серии, то предотвратить повторную закачку старых серий можно, отжав галочку в соответсвующих местах при запуске нового торрента. По возможности, желательно не удалять старые серии как можно дольше, чтобы релизёр не столько продолжал раздавать старые серии, а смог сконцентрироваться на новых.




Скачать Я есть Грут через торрент https://i1-imageban-ru.translate.goog/out/2022/08/10/72a4732dfb1f2f47441505a78c4e9c44.png Скачать, смотреть онлайн Я есть Грут бесплантно в хорошем качестве Описание: «Я есть Грут» — серия анимационных короткометражек о приключениях и шалостях самого умильного члена команды Стражи Галактики, ... 9.9 10 14
Info! Золотая раздача, скачанное не засчитывается.
Торрент: Зарегистрирован [2022-08-10 17:55] · скачан: 451 раз
Статус: √ проверено
Размер: 1.08 GB
Как cкачать? Как скачать Я есть Грут через торрент | UTorrent

28-11-2019 20:33  


Отключить вcю реклaмy на сайте, в т.ч. и в плеере онлайн просмотра!

    Дорогой пользователь! Огромная просьба, поблагодарите релизера, оцените раздачу и оставьте свои комментарий, если Вы скачали Я есть Грут через торрент бесплатно!!
    Комментировать посты могут только пользователи прошедшие не сложную регистрацию
    Показать сообщения:    


    Я есть Грут через торрент
    Скачать бесплатно Я есть Грут
    Я есть Грут скачать торрент
    Я есть Грут смотреть онлайн
    Cкачать фильм Я есть Грут бесплатно
    Я есть Грут скачать торрент в хорошем качестве
    Я есть Грут смотреть онлайн бесплатно в хорошем качестве
    Вы не можете начинать темы
    Вы не можете отвечать на сообщения
    Вы не можете редактировать свои сообщения
    Вы не можете удалять свои сообщения
    Вы не можете голосовать в опросах
    Вы не можете прикреплять файлы к сообщениям
    Вы можете скачивать файлы
    Я есть Грут / I Am Groot / Сезон: 1 / Серии: 1-5 из 5 [2022, Мультфильм, фантастика, фэнтези, боевик, комедия, приключения, WEB-DL 1080p] MVO [LostFilm] смотреть онлайн, скачать торрент picoco.icu