Доктор Стрэндж

Лицензия

Добыча

Дубляж

Уэнсдэй

1 сезон

Тор

Дубляж

В эфире

Дубляж

Там, где раки поют

MVO

Властелин колец

1 сезон

Deluxe

pack

Рекомендуем

30

Пиратка

ВАЖНО

ВАЖНО

Ghostwire

Пиратка

jed

RePack

nioh2

RePack

RDR2

RePack

NEED FOR SPEED™ PAYBACK

RePack

скачать торрент

Кинопоиск HD

Острые козырьки 6 сезон

6 сезон

FAR CRY 6

RePack

скачать торрент

Лицензия

скачать торрент

MVO

1

1 сезон

скачать торрент

1 сезон

скачать торрент

Лицензия

  

Элвис / Elvis (Баз Лурман) [2022, Биография, драма, музыка, WEB-DL 1080p] Дубляж [Bravo Records Georgia] +2xMVO [Jaskier, TVShows]

Элвис через торрент pb.wtf

Раздают: 3 [ 0 KB/s ]
Размер: 10.72 GB | Добавлен: 3 мес. 22 д. назад | Торрент скачан:170 раз
Смотреть онлайн | Скачать   

10-08-2022 18:38 Элвис Скачать торрент  

Элвис
Elvis

Год выпуска: 2022
Страна: США, Австралия
Студия: Bazmark Films, Roadshow Entertainment, The Jackal Group
Жанр: Биография, драма, музыка
Продолжительность: 02:39:14
Перевод(ы):
#1: Дублированный | Bravo Records Georgia
#2: Профессиональный (многоголосый) | Jaskier
#3: Профессиональный многоголосый | TVShows
Субтитры: Русские (Forced, Full), английские

Режиссер: Баз Лурман

rating

В ролях: Остин Батлер, Коди Смит-Макфи, Том Хэнкс, Дэвид Уинам, Дэйкр Монтгомери, Люк Брейси, Оливия ДеДжонг, Ричард Роксбург, Келвин Харрисон-мл., Ксавьер Сэмюэл, Кейт Малвани, Элизабет Каллен, Наташа Бассетт, Мелина Видлер, Леон Форд, Кристофер Соммерс, Джош МакКонвилл, Гэри Кларк-младший, Хелен Томсон, Чарльз Граундс, Чайдон Джей, Адам Данн, Йола, Гарет Дэвис, Алекс Раду, Элтон Мейсон, Лилли Уоллес, Майк Бингаман, Шэрон Брукс, Кристиан Маккарти, Дэвид Гэннон (II), Асаби Гудман, Патрик Ширер, Джек МакГирр, Сандро Коларелли, Ши Д'Монфор, Лиам Доннелли, Сильвана Аззи Эрас

Описание: История жизни и музыки Элвиса Пресли через призму сложных взаимоотношений с его менеджером, полковником Томом Паркером. Они работали вместе более 20 лет: от начала карьеры Элвиса до его небывалой славы.

Качество: WEB-DL 1080p
Формат: MKV

Видео: MPEG-4 AVC, 1920x1080, 7844 Kbit/s, 23.976 fps
Аудио #01: 48 kHz, AC3, 5.1, 384 Kbps | Дублированный | Bravo Records Georgia | RUS |
Аудио #02: 48 kHz, AC3, 5.1, 448 Kbps | Профессиональный многоголосый | Jaskier | RUS |
Аудио #03: 48 kHz, AC3, 2.0, 192 Kbps | Профессиональный многоголосый | TVShows | RUS |
Аудио #04: 48 kHz, E-AC3+Atmos, 5.1, 768 Kbps | Оригинал | ENG |
скриншот  скриншот  скриншот  скриншот  скриншот  скриншот  

General
Unique ID : 220478808745127365659926869750966670454 (0xA5DEAC8A61344A0FC7506F9F0AF85476)
Complete name : D:Elvis.2022.D.MVO.WEB-DL.1080p.seleZen.mkv
Format : Matroska
Format version : Version 4
File size : 10.7 GiB
Duration : 2 h 39 min
Overall bit rate : 9 609 kb/s
Movie name : Elvis 2022 from seleZen
Encoded date : UTC 2022-08-13 03:21:17
Writing application : mkvmerge v59.0.0 ('Shining Star') 64-bit
Writing library : libebml v1.4.2 + libmatroska v1.6.4

Video
ID : 1
Format : AVC
Format/Info : Advanced Video Codec
Format profile : [email protected]
Format settings : CABAC / 4 Ref Frames
Format settings, CABAC : Yes
Format settings, Reference : 4 frames
Codec ID : V_MPEG4/ISO/AVC
Duration : 2 h 39 min
Bit rate : 7 844 kb/s
Width : 1 920 pixels
Height : 1 080 pixels
Display aspect ratio : 16:9
Frame rate mode : Constant
Frame rate : 23.976 (24000/1001) FPS
Color space : YUV
Chroma subsampling : 4:2:0
Bit depth : 8 bits
Scan type : Progressive
Bits/(Pixel*Frame) : 0.158
Stream size : 8.72 GiB (81%)
Language : English
Default : Yes
Forced : No
Color range : Limited
Color primaries : BT.709
Transfer characteristics : BT.709
Matrix coefficients : BT.709

Audio #1
ID : 2
Format : AC-3
Format/Info : Audio Coding 3
Commercial name : Dolby Digital
Codec ID : A_AC3
Duration : 2 h 39 min
Bit rate mode : Constant
Bit rate : 384 kb/s
Channel(s) : 6 channels
Channel layout : L R C LFE Ls Rs
Sampling rate : 48.0 kHz
Frame rate : 31.250 FPS (1536 SPF)
Compression mode : Lossy
Stream size : 439 MiB (4%)
Title : Дубляж
Language : Russian
Service kind : Complete Main
Default : Yes
Forced : Yes

Audio #2
ID : 3
Format : AC-3
Format/Info : Audio Coding 3
Commercial name : Dolby Digital
Codec ID : A_AC3
Duration : 2 h 39 min
Bit rate mode : Constant
Bit rate : 448 kb/s
Channel(s) : 6 channels
Channel layout : L R C LFE Ls Rs
Sampling rate : 48.0 kHz
Frame rate : 31.250 FPS (1536 SPF)
Compression mode : Lossy
Stream size : 510 MiB (5%)
Title : MVO [Jaskier]
Language : Russian
Service kind : Complete Main
Default : No
Forced : No

Audio #3
ID : 4
Format : AC-3
Format/Info : Audio Coding 3
Commercial name : Dolby Digital
Codec ID : A_AC3
Duration : 2 h 39 min
Bit rate mode : Constant
Bit rate : 192 kb/s
Channel(s) : 2 channels
Channel layout : L R
Sampling rate : 48.0 kHz
Frame rate : 31.250 FPS (1536 SPF)
Compression mode : Lossy
Stream size : 219 MiB (2%)
Title : MVO [TVShows]
Language : Russian
Service kind : Complete Main
Default : No
Forced : No

Audio #4
ID : 5
Format : E-AC-3 JOC
Format/Info : Enhanced AC-3 with Joint Object Coding
Commercial name : Dolby Digital Plus with Dolby Atmos
Codec ID : A_EAC3
Duration : 2 h 39 min
Bit rate mode : Constant
Bit rate : 768 kb/s
Channel(s) : 6 channels
Channel layout : L R C LFE Ls Rs
Sampling rate : 48.0 kHz
Frame rate : 31.250 FPS (1536 SPF)
Compression mode : Lossy
Stream size : 875 MiB (8%)
Title : Original
Language : English
Service kind : Complete Main
Default : No
Forced : No
Complexity index : 16
Number of dynamic objects : 15
Bed channel count : 1 channel
Bed channel configuration : LFE

Text #1
ID : 6
Format : UTF-8
Codec ID : S_TEXT/UTF8
Codec ID/Info : UTF-8 Plain Text
Duration : 2 h 29 min
Bit rate : 3 b/s
Frame rate : 0.008 FPS
Count of elements : 73
Stream size : 3.56 KiB (0%)
Title : Forced
Language : Russian
Default : Yes
Forced : Yes

Text #2
ID : 7
Format : UTF-8
Codec ID : S_TEXT/UTF8
Codec ID/Info : UTF-8 Plain Text
Duration : 2 h 38 min
Bit rate : 79 b/s
Frame rate : 0.184 FPS
Count of elements : 1753
Stream size : 92.2 KiB (0%)
Title : Full
Language : Russian
Default : No
Forced : No

Text #3
ID : 8
Format : UTF-8
Codec ID : S_TEXT/UTF8
Codec ID/Info : UTF-8 Plain Text
Duration : 2 h 39 min
Bit rate : 68 b/s
Frame rate : 0.266 FPS
Count of elements : 2537
Stream size : 79.9 KiB (0%)
Title : Full
Language : English
Default : No
Forced : No

Text #4
ID : 9
Format : UTF-8
Codec ID : S_TEXT/UTF8
Codec ID/Info : UTF-8 Plain Text
Duration : 2 h 39 min
Bit rate : 78 b/s
Frame rate : 0.296 FPS
Count of elements : 2827
Stream size : 91.2 KiB (0%)
Title : SDH
Language : English
Default : No
Forced : No

Menu
00:00:00.000 : Chapter 1
00:09:06.000 : Chapter 2
00:14:30.000 : Chapter 3
00:22:05.000 : Chapter 4
00:29:46.000 : Chapter 5
00:38:05.000 : Chapter 6
00:46:20.000 : Chapter 7
00:53:33.000 : Chapter 8
01:03:28.000 : Chapter 9
01:12:04.000 : Chapter 10
01:21:09.000 : Chapter 11
01:30:16.000 : Chapter 12
01:39:18.000 : Chapter 13
01:48:44.000 : Chapter 14
01:57:10.000 : Chapter 15
02:04:45.000 : Chapter 16
02:13:03.000 : Chapter 17
02:22:34.000 : Chapter 18
02:29:55.000 : Chapter 19

!bober100 писал(а):


Замена дубляжа 2.0 на 5.1.



Скачать Элвис через торрент https://i120.fastpic.org/big/2022/0810/4c/204eb78dcc56eee218f75b0a4621484c.jpg Скачать, смотреть онлайн Элвис бесплантно в хорошем качестве Описание: История жизни и музыки Элвиса Пресли через призму сложных взаимоотношений с его менеджером, полковником Томом Паркером. Они ... 9.1 10 19
Торрент: Зарегистрирован [2022-08-14 13:56] · скачан: 170 раз
Статус: √ проверено
Размер: 10.72 GB
Как cкачать? Как скачать Элвис через торрент | UTorrent

% Раздел Тема Автор DL S | L
Ultra HD (UHD: 2K, 4K, 8K) [ 73.18 GB ] Элвис / Elvis | Jaskier | 2160p, (Dolby Vision Profile 8 bober100 Скачать
2 | 0
Фильмы 2022 [DVDrip, WEB-DLRip, HDrip] (DUB, MVO) [ 4.31 GB ] Элвис / Elvis | Jaskier | DLRip-AVC Lithuania Скачать
9 | 0
Фильмы с украинским озвучиванием [ 2.7 GB ] Элвис / Елвіс / Elvis | DUB | DLRip-AVC killermax2013 Скачать
4 | 0



Последний раз редактировалось: bober100 (2022-08-14 13:56), всего редактировалось 1 раз

28-11-2019 20:33  


Отключить вcю реклaмy на сайте, в т.ч. и в плеере онлайн просмотра!

11-08-2022 10:03 Элвис Скачать торрент  

ШЛААК!!!



11-08-2022 23:16 Элвис Скачать торрент  

fight писал(а):

ШЛААК!!!

аргументируйте плиз! сам слишком поздно родился, чтоб тащиться от элвиса, но надо признать - он легенда несомненно (сотня-другая миллионов фанатов это вам не кружок любителей киркорова)) история такого успеха априори не может быть неинтересна. ну и том хенкс - это том хенкс, не помню ни одного хренового фильма с ним.



12-08-2022 12:30 Элвис Скачать торрент  

fight писал(а):

ШЛААК!!!

Сердючку и Баскова наверно слушаешь....



13-08-2022 12:15 Элвис Скачать торрент  

tamburetko писал(а):

fight писал(а):

ШЛААК!!!

аргументируйте плиз! сам слишком поздно родился, чтоб тащиться от элвиса, но надо признать - он легенда несомненно (сотня-другая миллионов фанатов это вам не кружок любителей киркорова)) история такого успеха априори не может быть неинтересна. ну и том хенкс - это том хенкс, не помню ни одного хренового фильма с ним.

родился 89 и мне нравится музыка элвиса



14-08-2022 09:34 Элвис Скачать торрент  

но это не тот перевод который на КП, скоро тот ждать?



29-08-2022 20:51 Элвис Скачать торрент  

Так называемые байопики - это одни из лучших фильмов современного Голливуда, Элвис не исключение, фильм отличный!
А на вкус и цвет, конечно, у всех разные предпочтения и настроения.



03-10-2022 19:06 Элвис Скачать торрент  

Совершенно не фанал Элвиса, но фильм отличный!
Не такой сильный конечно как "Богемская рапсодия"



05-10-2022 11:56 Элвис Скачать торрент  

неплохой фильм. до рапсодии не дотягивает. да и повесточкой попахивает. не?)



    Дорогой пользователь! Огромная просьба, поблагодарите релизера, оцените раздачу и оставьте свои комментарий, если Вы скачали Элвис через торрент бесплатно!!
    Комментировать посты могут только пользователи прошедшие не сложную регистрацию
    Показать сообщения:    


    Элвис через торрент
    Скачать бесплатно Элвис
    Элвис скачать торрент
    Элвис смотреть онлайн
    Cкачать фильм Элвис бесплатно
    Элвис скачать торрент в хорошем качестве
    Элвис смотреть онлайн бесплатно в хорошем качестве
    Вы не можете начинать темы
    Вы не можете отвечать на сообщения
    Вы не можете редактировать свои сообщения
    Вы не можете удалять свои сообщения
    Вы не можете голосовать в опросах
    Вы не можете прикреплять файлы к сообщениям
    Вы можете скачивать файлы
    Элвис / Elvis [2022, Биография, драма, музыка, WEB-DL 1080p] Дубляж [Bravo Records Georgia] +2xMVO [Jaskier, TVShows] смотреть онлайн, скачать торрент picoco.icu