Доктор Стрэндж

Лицензия

Добыча

MVO

Дом дракона

1 сезон

Тор

Лицензия

Мэверик

Лицензия

Там, где раки поют

MVO

Властелин колец

1 сезон

Ultimate

pack

Рекомендуем

30

Repack

ВАЖНО

ВАЖНО

Ghostwire

RePack

jed

RePack

nioh2

RePack

RDR2

RePack

NEED FOR SPEED™ PAYBACK

RePack

скачать торрент

Кинопоиск HD

Острые козырьки 6 сезон

6 сезон

FAR CRY 6

RePack

скачать торрент

Лицензия

скачать торрент

MVO

1

1 сезон

скачать торрент

1 сезон

скачать торрент

Лицензия

  

Побег из космоса / Boonie Bears: Back To Earth / Xiong chu mo: Chong fan di qiu (Линь Хуэйда) [2022 г., Мультфильм, приключения, фантастика, боевик, WEB-DLRip 720p / 60 FPS, Дубляж] от R.G. HD-Films

Побег из космоса через торрент pb.wtf

Раздают: 10 [ 0 KB/s ]
Размер: 3.52 GB | Добавлен: 1 мес. 22 д. назад | Торрент скачан:151 раз
Смотреть онлайн Побег из космоса | Скачать   

11-08-2022 11:33 Побег из космоса Скачать торрент  

Побег из космоса / Boonie Bears: Back To Earth / Xiong chu mo: Chong fan di qiu
Год выпуска: 2022
Страна: Китай
Жанр: Мультфильм, приключения, фантастика, боевик
Продолжительность: 01:37:00
Перевод: Дублированный | Кинопоиск HD (Back Board Cinema)

Режиссер: Линь Хуэйда

Премьера в мире: 1 февраля 2022

rating

В ролях: Биньюн Жанг, Крис Бойке, Чэн Цзиян, Киран Катари, Джозеф С. Ламберт, Ли Ваньяо, Шиван Ламсден, Пол «Макс» Райнхарт, Оливия Ситон-Хилл, Сара Секора

Описание: Медведь Брэмбл всегда хотел стать героем. И однажды ему выпал шанс стать не просто героем, а супергероем. Познакомившись в лесу с пришельцем Эви, Брэмбл становится обладателем суперспособностей. Теперь он может реализовать любое желание одной силой мысли. Высокоразвитый народ Эви покинул Землю миллионы лет назад. И вот теперь Эви вернулся, чтобы передать новейшую технологию землянам, а также в надежде найти давно покинутый древний город и, может быть, свою семью. Однако следом за Эви из космоса прибывают пираты, которые хотят захватить Влacть во Вселенной. Медведь Брэмбл и его пушистые друзья должны помочь новому другу Эви и заодно спасти Вселенную.


Качество: WEB-DLRip 720p / 60 FPS
Формат: MKV
Видео кодек: H.264
Аудио кодек: AC3
Видео: x264, 1280 x 536 ( 2,40:1 ), 4807 kbps, 60,000 fps, ( 0.117 bpp)
Аудио#1: Русский, AC-3, 48.0 KHz, 6 ch, 384 Kbps Dub (Back Board Cinema)
Релиз от: Автор рипа: slaventi-69
x264 [info]: using cpu capabilities: MMX2 SSE2Fast SSSE3 SSE4.2 AVX AVX2 FMA3 LZCNT BMI1 BMI2
x264 [info]: profile High, level 4.1

x264 [info]: frame I:1784 Avg QP:14.79 size: 75210
x264 [info]: frame P:83877 Avg QP:16.55 size: 20585
x264 [info]: frame B:263582 Avg QP:19.13 size: 6209
x264 [info]: consecutive B-frames: 2.2% 3.5% 9.8% 23.2% 38.6% 22.6%

Общее
Уникальный идентификатор : 215197992576047994502020871685832357225 (0xA1E5A0339AC548380684DEC9423EB569)
Полное имя : G:\60 FPS\Boonie.Bears_Back.To.Earth.(2022.)WEB-DLRip.720p.(60 Fps).mkv
Формат : Matroska
Версия формата : Version 4
Размер файла : 3,52 Гбайт
Продолжительность : 1 ч. 37 м.
Общий поток : 5195 Кбит/сек
Название фильма : Побег из космоса / Boonie Bears: Back To Earth / Xiong chu mo: Chong fan di qiu (2022) WEB-DLRip 720p (60 Fps)
Дата кодирования : UTC 2022-08-11 10:29:01
Программа кодирования : mkvmerge v69.0.0 ('Day And Age') 64-bit
Библиотека кодирования : libebml v1.4.2 + libmatroska v1.6.4

Видео
Идентификатор : 1
Формат : AVC
Формат/Информация : Advanced Video Codec
Профиль формата : [email protected]
Настройки формата : CABAC / 10 Ref Frames
Параметр CABAC формата : Да
Параметр RefFrames формата : 10 кадров
Идентификатор кодека : V_MPEG4/ISO/AVC
Продолжительность : 1 ч. 37 м.
Битрейт : 4807 Кбит/сек
Ширина : 1280 пикселей
Высота : 536 пикселей
Соотношение сторон : 2,40:1
Режим частоты кадров : Постоянный
Частота кадров : 60,000 кадров/сек
Цветовое пространство : YUV
Субдискретизация насыщенности : 4:2:0
Битовая глубина : 8 бит
Тип развёртки : Прогрессивная
Бит/(Пиксели*Кадры) : 0.117
Размер потока : 3,26 Гбайт (93%)
Заголовок : slaventi-69 ( R.G. HD-Films | 60 fps )
Библиотека кодирования : x264 core 130 r2273 b3065e6
Настройки программы : cabac=1 / ref=10 / deblock=1:-2:-2 / analyse=0x3:0x133 / me=umh / subme=9 / psy=1 / psy_rd=1.00:0.00 / mixed_ref=1 / me_range=32 / chroma_me=1 / trellis=2 / 8x8dct=1 / cqm=0 / deadzone=21,11 / fast_pskip=0 / chroma_qp_offset=-2 / threads=8 / lookahead_threads=4 / sliced_threads=0 / nr=0 / decimate=1 / interlaced=0 / bluray_compat=0 / constrained_intra=0 / bframes=5 / b_pyramid=2 / b_adapt=2 / b_bias=0 / direct=2 / weightb=1 / open_gop=0 / weightp=2 / keyint=600 / keyint_min=23 / scenecut=40 / intra_refresh=0 / rc=crf / mbtree=0 / crf=16.3 / qcomp=0.60 / qpmin=0 / qpmax=69 / qpstep=4 / ip_ratio=1.40 / pb_ratio=1.30 / aq=1:1.00
Язык : English
Default : Да
Forced : Нет

Аудио
Идентификатор : 2
Формат : AC-3
Формат/Информация : Audio Coding 3
Коммерческое название : Dolby Digital
Идентификатор кодека : A_AC3
Продолжительность : 1 ч. 37 м.
Вид битрейта : Постоянный
Битрейт : 384 Кбит/сек
Каналы : 6 каналов
Channel layout : L R C LFE Ls Rs
Частота : 48,0 КГц
Частота кадров : 31,250 кадров/сек (1536 SPF)
Битовая глубина : 16 бит
Метод сжатия : С потерями
Размер потока : 266 Мбайт (7%)
Заголовок : Dub (Back Board Cinema)
Язык : Russian
ServiceKind/String : Complete Main
Default : Да
Forced : Нет

Просьба к переливающим на другие сайты, в оформлении указывайте пожалуйста авторство группы R.G. HD-Films



Скачать Побег из космоса через торрент https://i.postimg.cc/Y9bPM40W/2wilqkjrgb1os2dg71k8kb3g3.jpg Скачать, смотреть онлайн Побег из космоса бесплантно в хорошем качестве Описание: Медведь Брэмбл всегда хотел стать героем. И однажды ему выпал шанс стать не просто героем, а супергероем. Познакомившись в лесу с ... 8.9 10 7
Info! Золотая раздача, скачанное не засчитывается.
Торрент: Зарегистрирован [2022-08-11 11:33] · скачан: 151 раз
Статус: √ проверено
Размер: 3.52 GB
Как cкачать? Как скачать Побег из космоса через торрент | UTorrent

% Раздел Тема Автор DL S | L
Зарубежные Мультфильмы (WEB-DL 720p, 1080p) [ 4.65 GB ] Побег из космоса / Boonie Bears: Back To Earth / Xiong chu mo: Chong fan di qiu | DUB | 1080p bober100 Скачать
5 | 0

28-11-2019 20:33  

Отключить вcю реклaмy на сайте

11-08-2022 16:13 Побег из космоса Скачать торрент  

Во избежание вопросов.


Плеера воспроизводят.



    Дорогой пользователь! Огромная просьба, поблагодарите релизера, оцените раздачу и оставьте свои комментарий, если Вы скачали Побег из космоса через торрент бесплатно!!
    Комментировать посты могут только пользователи прошедшие не сложную регистрацию
    Показать сообщения:    


    Побег из космоса через торрент
    Скачать бесплатно Побег из космоса
    Побег из космоса скачать торрент
    Побег из космоса смотреть онлайн
    Cкачать фильм Побег из космоса бесплатно
    Побег из космоса скачать торрент в хорошем качестве
    Побег из космоса смотреть онлайн бесплатно в хорошем качестве
    Вы не можете начинать темы
    Вы не можете отвечать на сообщения
    Вы не можете редактировать свои сообщения
    Вы не можете удалять свои сообщения
    Вы не можете голосовать в опросах
    Вы не можете прикреплять файлы к сообщениям
    Вы можете скачивать файлы