Доктор Стрэндж

Лицензия

Добыча

Дубляж

Дом дракона

1 сезон

Тор

Дубляж

В эфире

Дубляж

Там, где раки поют

MVO

Властелин колец

1 сезон

Deluxe

pack

Рекомендуем

30

Пиратка

ВАЖНО

ВАЖНО

Ghostwire

Пиратка

jed

RePack

nioh2

RePack

RDR2

RePack

NEED FOR SPEED™ PAYBACK

RePack

скачать торрент

Кинопоиск HD

Острые козырьки 6 сезон

6 сезон

FAR CRY 6

RePack

скачать торрент

Лицензия

скачать торрент

MVO

1

1 сезон

скачать торрент

1 сезон

скачать торрент

Лицензия

  

Доктор Стрэндж: В мультивселенной безумия в 3Д / Doctor Strange in the Multiverse of Madness 3D (Сэм Рэйми / Sam Raimi) [2022, фэнтези, боевик, приключения, фантастика, ужасы, BDRip, 1080p] OverUnder / Вертикальная стереопара (Дубляж)

Доктор Стрэндж: В мультивселенной безумия в 3Д через торрент pb.wtf

Раздают: 2 [ 0 KB/s ]
Размер: 15.28 GB | Добавлен: 3 мес. 19 д. назад | Торрент скачан:82 раза
Смотреть онлайн | Скачать   

12-08-2022 07:29 Доктор Стрэндж: В мультивселенной безумия в 3Д Скачать торрент  

Доктор Стрэндж: В мультивселенной безумия / Doctor Strange in the Multiverse of Madness

Год выпуска: 2022
Страна: США (Marvel Studios)
Жанр: фэнтези, боевик, приключения, фантастика, ужасы
Продолжительность: 02:06:31

Переводы: Профессиональный (дублированный). Профессиональные многоголосые закадровые
Русские субтитры: нет
Режиссер на русском: Сэм Рэйми / Sam Raimi

В ролях: Бенедикт Камбербэтч, Элизабет Олсен, Чиветель Эджиофор, Бенедикт Вонг, Сочил Гомес, Майкл Стулбарг, Рэйчел МакАдамс, Патрик Стюарт, Джон Красински, Хейли Этвелл

Роли озвучивали: Александр Головчанский, Анна Киселёва, Сергей Чихачёв, Александр Матросов, Елизавета Аистова

Описание: Доктор Стрэндж при помощи Вонга спасает от гигантского осьминога девушку-подростка по имени Америка Чавес, которая при сильном испуге может открывать порталы в параллельные вселенные. Пытаясь уберечь новую знакомую от злой силы, жаждущей заполучить её способность, Доктор вместе с Америкой пускается в путешествие по мультивселенной.

Сэмпл: http://sendfile.su/1654940

Качество: BDrip, 1080p
Контейнер: MKV
Формат 3D: OverUnder / Вертикальная стереопара
Порядок ракурсов: левый ракурс первый
Видео кодек: x264
Аудио кодек: AC3
Видео: AVC / [email protected] / 23,976 fps / 1920х2160 / 14,6 Мбит/сек
Аудио 2: Русский / AC3 / 48 KHz / 5.1 ch / 448 Кбит/сек(Дуб Невафильм)
Аудио 3: Русский / AC3 / 48 KHz / 5.1 ch / 448 Кбит/сек(MVO - HDRezka)
Аудио 4: Русский / AC3 / 48 KHz / 5.1 ch / 448 Кбит/сек(MVO - Jaskier)
Аудио 5: Русский / AC3 / 48 KHz / 5.1 ch / 384 Кбит/сек(MVO - NewComers)
Аудио 6: Английский / AC3 / 48 KHz / 5.1 ch / 640 Кбит/сек

ВНИМАНИЕ ! На встроенных ТВ-плеерах работать не будет!!!

ТВ Samsung в названии которого есть надпись Ultra HD , и LG Ultra HD 800 серии, LG C6P, Xiaomi Mi TV 2, GRUNDIG VLE 8474 BL, Samsung UE48H6200AK, SUPRA STV-LC42ST960UL00 воспроизводят полные стереопары встроенными плеерами
Железные плееры на которых воспроизводятся полные стереопары:Popcorn C-200, Popcorn a-400, Dune HD Smart D1 , Dune HD DUO , Dune HD Smart H1 , Dune HD Smart B1 , Dune HD Max , Dune HD TV-303D, Dune HD TV-102, Dune HD Base 3D, Philips HMP7001, Aura HD, MECOOL BB2, Zidoo x9s, Lake I Cloud, MiBox 3, Oculus Quest 2
Чтобы изображение было на весь экран в плеере выставляем, если рип 1920х1600 - то выставляем 2.35:1 , если 1920х2160 - то выставляем 16:9



14.08.2022. Релиз обновлён - добавлен русский дубляж.
Желающие, скачайте заново торрент-файл.
Общее
Уникальный идентификатор : 220652030395482617890059475375101350774 (0xA6000906FC7497DDB85A7111F9149376)
Полное имя : G:\Doctor Strange in the Multiverse of Madness.Rip by SeRoGa00.mkv
Формат : Matroska
Версия формата : Version 2
Размер файла : 15,3 Гбайт
Продолжительность : 2 ч. 6 м.
Общий поток : 17,3 Мбит/сек
Дата кодирования : UTC 2022-08-14 05:39:32
Программа кодирования : mkvmerge v4.9.1 ('Ich will') сборка от Jul 11 2011 23:53:15
Библиотека кодирования : libebml v1.2.1 + libmatroska v1.1.1

Видео
Идентификатор : 1
Формат : AVC
Формат/Информация : Advanced Video Codec
Профиль формата : [email protected]
Параметр CABAC формата : Да
Параметр ReFrames формата : 4 кадра
Идентификатор кодека : V_MPEG4/ISO/AVC
Продолжительность : 2 ч. 6 м.
Битрейт : 14,6 Мбит/сек
Ширина : 1920 пикселей
Высота : 2160 пикселей
Соотношение сторон : 0,889
Частота кадров : 23,976 кадра/сек
Цветовое пространство : YUV
Субдискретизация насыщенности : 4:2:0
Битовая глубина : 8 бит
Тип развёртки : Прогрессивная
Бит/(Пиксели*Кадры) : 0.147
Размер потока : 12,9 Гбайт (84%)
Заголовок : Rip by SeRoGa00
Библиотека кодирования : x264 core 157 r2969 d4099dd
Настройки программы : cabac=1 / ref=4 / deblock=1:-3:-3 / analyse=0x3:0x113 / me=umh / subme=10 / psy=1 / psy_rd=1.00:0.15 / mixed_ref=1 / me_range=24 / chroma_me=1 / trellis=2 / 8x8dct=1 / cqm=0 / deadzone=21,11 / fast_pskip=1 / chroma_qp_offset=-3 / threads=12 / lookahead_threads=6 / sliced_threads=0 / nr=0 / decimate=0 / interlaced=0 / bluray_compat=0 / constrained_intra=0 / bframes=10 / b_pyramid=2 / b_adapt=2 / b_bias=0 / direct=3 / weightb=1 / open_gop=0 / weightp=2 / keyint=250 / keyint_min=23 / scenecut=40 / intra_refresh=0 / rc_lookahead=60 / rc=crf / mbtree=1 / crf=16.5 / qcomp=0.60 / qpmin=10 / qpmax=69 / qpstep=4 / vbv_maxrate=40000 / vbv_bufsize=40000 / crf_max=0.0 / nal_hrd=none / filler=0 / ip_ratio=1.40 / aq=1:1.00
Язык : English
Default : Да
Forced : Нет

Аудио #1
Идентификатор : 2
Формат : AC-3
Формат/Информация : Audio Coding 3
Расширение режима : CM (complete main)
Параметр Endianness формата : Big
Идентификатор кодека : A_AC3
Продолжительность : 2 ч. 6 м.
Вид битрейта : Постоянный
Битрейт : 448 Кбит/сек
Каналы : 6 каналов
Расположение каналов : Front: L C R, Side: L R, LFE
Частота : 48,0 КГц
Битовая глубина : 16 бит
Метод сжатия : С потерями
Задержка видео : 11 мс.
Размер потока : 405 Мбайт (3%)
Заголовок : Дубляж Невафильм
Язык : Russian
Default : Да
Forced : Нет

Аудио #2
Идентификатор : 3
Формат : AC-3
Формат/Информация : Audio Coding 3
Расширение режима : CM (complete main)
Параметр Endianness формата : Big
Идентификатор кодека : A_AC3
Продолжительность : 2 ч. 6 м.
Вид битрейта : Постоянный
Битрейт : 448 Кбит/сек
Каналы : 6 каналов
Расположение каналов : Front: L C R, Side: L R, LFE
Частота : 48,0 КГц
Битовая глубина : 16 бит
Метод сжатия : С потерями
Задержка видео : 24 мс.
Размер потока : 405 Мбайт (3%)
Заголовок : MVO - HDRezka
Язык : Russian
Default : Нет
Forced : Нет

Аудио #3
Идентификатор : 4
Формат : AC-3
Формат/Информация : Audio Coding 3
Расширение режима : CM (complete main)
Параметр Endianness формата : Big
Идентификатор кодека : A_AC3
Продолжительность : 2 ч. 6 м.
Вид битрейта : Постоянный
Битрейт : 448 Кбит/сек
Каналы : 6 каналов
Расположение каналов : Front: L C R, Side: L R, LFE
Частота : 48,0 КГц
Битовая глубина : 16 бит
Метод сжатия : С потерями
Задержка видео : 24 мс.
Размер потока : 405 Мбайт (3%)
Заголовок : MVO - Jaskier
Язык : Russian
Default : Нет
Forced : Нет

Аудио #4
Идентификатор : 5
Формат : AC-3
Формат/Информация : Audio Coding 3
Расширение режима : CM (complete main)
Параметр Endianness формата : Big
Идентификатор кодека : A_AC3
Продолжительность : 2 ч. 6 м.
Вид битрейта : Постоянный
Битрейт : 384 Кбит/сек
Каналы : 6 каналов
Расположение каналов : Front: L C R, Side: L R, LFE
Частота : 48,0 КГц
Битовая глубина : 16 бит
Метод сжатия : С потерями
Задержка видео : 24 мс.
Размер потока : 348 Мбайт (2%)
Заголовок : MVO - NewComers
Язык : Russian
Default : Нет
Forced : Нет

Аудио #5
Идентификатор : 6
Формат : AC-3
Формат/Информация : Audio Coding 3
Расширение режима : CM (complete main)
Параметр Endianness формата : Big
Идентификатор кодека : A_AC3
Продолжительность : 2 ч. 6 м.
Вид битрейта : Постоянный
Битрейт : 640 Кбит/сек
Каналы : 6 каналов
Расположение каналов : Front: L C R, Side: L R, LFE
Частота : 48,0 КГц
Битовая глубина : 16 бит
Метод сжатия : С потерями
Задержка видео : 24 мс.
Размер потока : 579 Мбайт (4%)
Язык : English
Default : Нет
Forced : Нет

Меню
00:00:00.000 : en:00:00:00.000
00:03:51.396 : en:00:03:51.396
00:08:26.504 : en:00:08:26.504
00:14:19.441 : en:00:14:19.441
00:18:23.059 : en:00:18:23.059
00:24:37.601 : en:00:24:37.601
00:37:58.150 : en:00:37:58.150
00:47:15.498 : en:00:47:15.498
00:50:03.541 : en:00:50:03.541
00:55:51.056 : en:00:55:51.056
00:59:46.331 : en:00:59:46.331
01:02:19.652 : en:01:02:19.652
01:05:18.414 : en:01:05:18.414
01:07:20.786 : en:01:07:20.786
01:15:03.582 : en:01:15:03.582
01:17:01.867 : en:01:17:01.867
01:19:18.420 : en:01:19:18.420
01:23:29.337 : en:01:23:29.337
01:26:34.189 : en:01:26:34.189
01:28:51.326 : en:01:28:51.326
01:34:47.305 : en:01:34:47.305
01:37:38.644 : en:01:37:38.644
01:41:27.622 : en:01:41:27.622
01:51:03.280 : en:01:51:03.280
01:53:26.466 : en:01:53:26.466
01:55:38.847 : en:01:55:38.847
01:56:32.068 : en:01:56:32.068
01:58:48.371 : en:01:58:48.371
01:59:26.158 : en:01:59:26.158



Скачать Доктор Стрэндж: В мультивселенной безумия в 3Д через торрент https://i6-imageban-ru.translate.goog/out/2022/08/12/cc878740ab1827e7bc4b6c6388e41cb6.png Скачать, смотреть онлайн Доктор Стрэндж: В мультивселенной безумия в 3Д бесплантно в хорошем качестве Описание: Доктор Стрэндж при помощи Вонга спасает от гигантского осьминога девушку-подростка по имени Америка Чавес, которая при сильном ... 10 10 5
Info! Золотая раздача, скачанное не засчитывается.
Торрент: Зарегистрирован [2022-08-14 06:17] · скачан: 82 раз
Статус: √ проверено
Размер: 15.28 GB
Как cкачать? Как скачать Доктор Стрэндж: В мультивселенной безумия в 3Д через торрент | UTorrent




Последний раз редактировалось: serega768 (2022-08-14 11:08), всего редактировалось 1 раз

28-11-2019 20:33  


Отключить вcю реклaмy на сайте, в т.ч. и в плеере онлайн просмотра!

    Дорогой пользователь! Огромная просьба, поблагодарите релизера, оцените раздачу и оставьте свои комментарий, если Вы скачали Доктор Стрэндж: В мультивселенной безумия в 3Д через торрент бесплатно!!
    Комментировать посты могут только пользователи прошедшие не сложную регистрацию
    Показать сообщения:    


    Доктор Стрэндж: В мультивселенной безумия в 3Д через торрент
    Скачать бесплатно Доктор Стрэндж: В мультивселенной безумия в 3Д
    Доктор Стрэндж: В мультивселенной безумия в 3Д скачать торрент
    Доктор Стрэндж: В мультивселенной безумия в 3Д смотреть онлайн
    Cкачать фильм Доктор Стрэндж: В мультивселенной безумия в 3Д бесплатно
    Доктор Стрэндж: В мультивселенной безумия в 3Д скачать торрент в хорошем качестве
    Доктор Стрэндж: В мультивселенной безумия в 3Д смотреть онлайн бесплатно в хорошем качестве
    Вы не можете начинать темы
    Вы не можете отвечать на сообщения
    Вы не можете редактировать свои сообщения
    Вы не можете удалять свои сообщения
    Вы не можете голосовать в опросах
    Вы не можете прикреплять файлы к сообщениям
    Вы можете скачивать файлы
    Доктор Стрэндж: В мультивселенной безумия в 3Д / Doctor Strange in the Multiverse of Madness 3D [2022, фэнтези, боевик, приключения, фантастика, ужасы, BDRip, 1080p] OverUnder / Вертикальная стереопара смотреть онлайн, скачать торрент picoco.icu