Доктор Стрэндж

Лицензия

Добыча

Дубляж

Дом дракона

1 сезон

Тор

Дубляж

В эфире

Дубляж

Там, где раки поют

MVO

Властелин колец

1 сезон

GLOBAL

pack

Рекомендуем

30

Пиратка

ВАЖНО

ВАЖНО

Ghostwire

Пиратка

jed

RePack

nioh2

RePack

RDR2

RePack

NEED FOR SPEED™ PAYBACK

RePack

скачать торрент

Кинопоиск HD

Острые козырьки 6 сезон

6 сезон

FAR CRY 6

RePack

скачать торрент

Лицензия

скачать торрент

MVO

1

1 сезон

скачать торрент

1 сезон

скачать торрент

Лицензия

  

Порт / Сезон: 1 / Серии: 1-8 из 8 (Нурбек Эген) [2019, Детектив, драма, нуар, WEB-DL 720p]

Порт через торрент pb.wtf

Раздают: 2 [ 0 KB/s ]
Размер: 10.9 GB | Добавлен: 2 мес. 5 д. назад | Торрент скачан:53 раза
Смотреть онлайн | Скачать   

13-08-2022 03:37 Порт Скачать торрент  

Порт
Год выпуска: 2019
Страна: Россия
Производство: ООО Продюсерская компания «Среда»
Жанр: Детектив, драма, нуар
Продолжительность: ~ 00:47:00 серия
Перевод: Не требуется
Субтитры: отсутствуют

Режиссер: Нурбек Эген

rating

В ролях: Роман Маякин, Вильма Кутавичюте, Наталья Швец, Дарья Мингазетдинова, Сергей Козик, Михаил Тройник, Виталия Корниенко, Евгений Зайфрид, Валерия Репина, Дмитрий Смирнов, Галина Хрумова

Описание: В центре событий - Лев Гарин: харизматичный и привлекательный коррумпированный таможенник. «Плохой» по общепринятым понятиям, но «хороший» в рамках конкретной интриги. История начинается с громкого преступления: бесследно исчезли крупный предприниматель Платон и его жена Ариадна, которая по совместительству была возлюбленной Льва. Главный герой поставлен перед выбором: уступить шантажистам и поставить под угрозу свою карьеру - или не уступить и поставить под угрозу жизнь Ариадны. По мере развития событий любовная связь Ариадны и Льва оказывается не просто ловушкой, но бездной, в которую валится вся жизнь героя. Уже не рассчитывая спастись самому, но отчаянно пытаясь найти способ спасти семью, Лев стремится понять, кто и за что мстит ему так последовательно и изощренно...

Качество: WEB-DL 720p
Формат: MKV

Видео: MPEG-4 AVC, 1280x720, ~ 4000 Кбит/с, 0.174 bit/pixel, 25 Кадр/с
Аудио: 48.0 kHz, AC3 Dolby Digital, 2/0 (L,R) ch, ~ 192 kbps
скриншот  скриншот  скриншот  скриншот  скриншот  скриншот  

Общее
Уникальный идентификатор : 234377178752497467750165073899280903137 (0xB05367164D2D516FAFAA27994E2BABE1)
Полное имя : D:Port.S01.2019.WEB-DL.720pPort.S01.E01.2019.WEB-DL.720p.mkv
Формат : Matroska
Версия формата : Version 4
Размер файла : 1,31 Гбайт
Продолжительность : 44 м. 47 с.
Общий поток : 4 183 Кбит/сек
Название фильма : Port.S01.E01.2019.WEB-DL.720p
Дата кодирования : UTC 2022-08-13 01:32:44
Программа кодирования : mkvmerge v68.0.0 ('The Curtain') 64-bit
Библиотека кодирования : libebml v1.4.2 + libmatroska v1.6.4
Attachments : poster.jpg

Видео
Идентификатор : 1
Формат : AVC
Формат/Информация : Advanced Video Codec
Профиль формата : [email protected]
Настройки формата : CABAC / 5 Ref Frames
Параметр CABAC формата : Да
Параметр RefFrames формата : 5 кадров
Идентификатор кодека : V_MPEG4/ISO/AVC
Продолжительность : 44 м. 47 с.
Битрейт : 4 000 Кбит/сек
Ширина : 1 280 пикселей
Высота : 720 пикселей
Соотношение сторон : 16:9
Режим частоты кадров : Постоянный
Частота кадров : 25,000 кадров/сек
Цветовое пространство : YUV
Субдискретизация насыщенности : 4:2:0
Битовая глубина : 8 бит
Тип развёртки : Прогрессивная
Бит/(Пиксели*Кадры) : 0.174
Размер потока : 1,25 Гбайт (95%)
Библиотека кодирования : x264 core 157
Настройки программы : cabac=1 / ref=5 / deblock=1:0:0 / analyse=0x3:0x133 / me=umh / subme=10 / psy=1 / psy_rd=1.00:0.00 / mixed_ref=1 / me_range=24 / chroma_me=1 / trellis=2 / 8x8dct=1 / cqm=0 / deadzone=21,11 / fast_pskip=1 / chroma_qp_offset=-2 / threads=22 / lookahead_threads=3 / sliced_threads=0 / nr=0 / decimate=1 / interlaced=0 / bluray_compat=0 / stitchable=1 / constrained_intra=0 / bframes=8 / b_pyramid=2 / b_adapt=2 / b_bias=0 / direct=3 / weightb=1 / open_gop=0 / weightp=2 / keyint=250 / keyint_min=25 / scenecut=40 / intra_refresh=0 / rc_lookahead=60 / rc=2pass / mbtree=1 / bitrate=4000 / ratetol=1.0 / qcomp=0.60 / qpmin=0 / qpmax=69 / qpstep=4 / cplxblur=20.0 / qblur=0.5 / vbv_maxrate=4400 / vbv_bufsize=16000 / nal_hrd=none / filler=0 / ip_ratio=1.40 / aq=1:1.00
Default : Да
Forced : Нет

Аудио
Идентификатор : 2
Формат : AC-3
Формат/Информация : Audio Coding 3
Коммерческое название : Dolby Digital
Идентификатор кодека : A_AC3
Продолжительность : 44 м. 47 с.
Вид битрейта : Постоянный
Битрейт : 192 Кбит/сек
Каналы : 2 канала
Channel layout : L R
Частота : 48,0 КГц
Частота кадров : 31,250 кадров/сек (1536 SPF)
Метод сжатия : С потерями
Размер потока : 61,5 Мбайт (5%)
Заголовок : [Original | AC-3 Audio]
Язык : Russian
Service kind : Complete Main
Default : Да
Forced : Нет

Внимание! Раздача ведётся путём добавления новых серий; при каждом добавлении создаётся новый торрент.
Чтобы начать докачку новой серии, пользователям необходимо сделать следующее:
1. Остановить скачивание;
2. Удалить старый торрент у себя из клиента (старые серии удалять не надо);
3. Скачать новый торрент и запустить его у себя в клиенте вместо старого, при этом указать клиенту путь в старую папку куда и должно происходить скачивание новых серий. Ваш клиент при этом должен произвести хеширование (проверку) старой папки и будет докачивать только те серии, которых у вас ещё нет. Старые серии при этом не удаляются, а продолжают раздаваться! Eсли вы уже удалили старые серии, то предотвратить повторную закачку старых серий можно, отжав галочку в соответствующих местах при запуске нового торрента.



Скачать Порт через торрент https://i120.fastpic.org/big/2022/0812/97/650588b55ce5f157b7f3ac6949a03c97.jpg Скачать, смотреть онлайн Порт бесплантно в хорошем качестве Описание: В центре событий - Лев Гарин: харизматичный и привлекательный коррумпированный таможенник. «Плохой» по общепринятым понятиям, но ... 7.7 10 9
Торрент: Зарегистрирован [2022-09-24 03:59] · скачан: 53 раз
Статус: √ проверено
Размер: 10.9 GB
Как cкачать? Как скачать Порт через торрент | UTorrent

% Раздел Тема Автор DL S | L
Наши сериалы [ 4.67 GB ] Порт / Сезон: 1 / Серии: 1-8 из 8 | | DLRip-AVC bober100 Скачать
2 | 0
Наши сериалы [ 16.09 GB ] Порт / Сезон: 1 / Серии: 1-8 из 8 | | 1080p bober100 Скачать
2 | 0
Наши фильмы (HD, WEB-DL 720p, 1080p) [ 7.76 GB ] Молот | | 1080p bober100 Скачать
1 | 0
Наши фильмы 2016 [ 1.84 GB ] Молот | Лицензия | BDRip-AVC Enigma2010 Скачать
1 | 0
Наши фильмы (Blu-ray, BD-Remux, HDDVD) [ 22.25 GB ] Молот | Лицензия | 1080p Russian Mafia Скачать
1 | 0
Наши фильмы 2016 [ 1.37 GB ] Молот | iTunes | DLRip -Lexx- Скачать
1 | 0
Наши фильмы (HD, WEB-DL 720p, 1080p) [ 3.65 GB ] Молот | iTunes | 1080p -Lexx- Скачать
1 | 0

28-11-2019 20:33  


Отключить вcю реклaмy на сайте, в т.ч. и в плеере онлайн просмотра!

    Дорогой пользователь! Огромная просьба, поблагодарите релизера, оцените раздачу и оставьте свои комментарий, если Вы скачали Порт через торрент бесплатно!!
    Комментировать посты могут только пользователи прошедшие не сложную регистрацию
    Показать сообщения:    


    Порт через торрент
    Скачать бесплатно Порт
    Порт скачать торрент
    Порт смотреть онлайн
    Cкачать фильм Порт бесплатно
    Порт скачать торрент в хорошем качестве
    Порт смотреть онлайн бесплатно в хорошем качестве
    Вы не можете начинать темы
    Вы не можете отвечать на сообщения
    Вы не можете редактировать свои сообщения
    Вы не можете удалять свои сообщения
    Вы не можете голосовать в опросах
    Вы не можете прикреплять файлы к сообщениям
    Вы можете скачивать файлы
    Порт / Сезон: 1 / Серии: 1-8 из 8 [2019, Детектив, драма, нуар, WEB-DL 720p] смотреть онлайн, скачать торрент picoco.icu