Доктор Стрэндж

Лицензия

Добыча

Дубляж

Дом дракона

1 сезон

Тор

Дубляж

В эфире

Дубляж

Там, где раки поют

MVO

Властелин колец

1 сезон

Ultimate

pack

Рекомендуем

30

Пиратка

ВАЖНО

ВАЖНО

Ghostwire

Пиратка

jed

RePack

nioh2

RePack

RDR2

RePack

NEED FOR SPEED™ PAYBACK

RePack

скачать торрент

Кинопоиск HD

Острые козырьки 6 сезон

6 сезон

FAR CRY 6

RePack

скачать торрент

Лицензия

скачать торрент

MVO

1

1 сезон

скачать торрент

1 сезон

скачать торрент

Лицензия

  

Доктор Стрэндж: В мультивселенной безумия / Doctor Strange in the Multiverse of Madness (Сэм Рэйми) [2022, Фантастика, фэнтези, боевик, приключения, ужасы, BDRip-HEVC 1080p, (10 bit)] Дубляж [Невафильм]

Доктор Стрэндж: В мультивселенной безумия через торрент pb.wtf

Раздают: 2 [ 0 KB/s ]
Размер: 4.78 GB | Добавлен: 3 мес. 16 д. назад | Торрент скачан:265 раз
Смотреть онлайн | Скачать   

13-08-2022 06:35 Доктор Стрэндж: В мультивселенной безумия Скачать торрент  

Доктор Стрэндж: В мультивселенной безумия
Doctor Strange in the Multiverse of Madness

Год выпуска: 2022
Страна: США
Студия: Marvel Studios
Жанр: Фантастика, фэнтези, боевик, приключения, ужасы
Продолжительность: 02:06:31
Перевод: Дублированный | Невафильм
Субтитры: Русские (Forced, full), английские (full, forced, SDH)

Режиссер: Сэм Рэйми

rating

В ролях: Бенедикт Камбербэтч, Элизабет Олсен, Чиветел Эджиофор, Бенедикт Вонг, Сочил Гомес, Майкл Стулбарг, Рэйчел МакАдамс, Патрик Стюарт, Брюс Кэмпбелл, Джулиан Хиллиард

Описание: Стабильность пространства временного континуума нарушена, и в мультивселенную открыт портал, через который в нашу реальность просачиваются монстры из других миров. Один из них охотится за подростком Америкой Чавез — именно ее Доктор Стрэндж видит в своих загадочных снах каждую ночь. Чтобы помочь девушке, Стрэндж обращается за помощью к Ванде Максимофф. Но недосягаемая мечта застилает ей глаза, превращая Ванду в безжалостую Алую Ведьму.

Качество: BDRip-HEVC 1080p
Формат: MKV

Видео: 1920x804 (2.40:1), 4319 Кбит/сек, HEVC (x265) ([email protected]@High) 10 бит
Аудио #01: 48 kHz, AC3, 5.1, 448 Kbps | Дублированный | RUS |
Аудио #02: 48 kHz, AC3, 5.1, 640 Kbps | Оригинал | ENG |
скриншот  скриншот  скриншот  скриншот  

Общее
Уникальный идентификатор : 166905444913728325979525232889705604601 (0x7D90D1C5C67D69FC86BF07BECBCD25F9)
Полное имя : .28.Доктор.Стрэндж.В.мультивселенной.безумия.Doctor.Strange.in.the.Multiverse.of.Madness.2022.BDRip-HEVC.1080p.mkv
Формат : Matroska
Версия формата : Version 4
Размер файла : 4,78 Гбайт
Продолжительность : 2 ч. 6 м.
Общий поток : 5 409 Кбит/сек
Дата кодирования : UTC 2022-08-13 04:15:17
Программа кодирования : mkvmerge v69.0.0 ('Day And Age') 64-bit
Библиотека кодирования : libebml v1.4.2 + libmatroska v1.6.4

Видео
Идентификатор : 1
Формат : HEVC
Формат/Информация : High Efficiency Video Coding
Профиль формата : Main [email protected]@High
Идентификатор кодека : V_MPEGH/ISO/HEVC
Продолжительность : 2 ч. 6 м.
Битрейт : 4 319 Кбит/сек
Ширина : 1 920 пикселей
Высота : 804 пикселя
Соотношение сторон : 2,40:1
Режим частоты кадров : Постоянный
Частота кадров : 23,976 (24000/1001) кадра/сек
Цветовое пространство : YUV
Субдискретизация насыщенности : 4:2:0
Битовая глубина : 10 бит
Бит/(Пиксели*Кадры) : 0.117
Размер потока : 3,82 Гбайт (80%)
Заголовок : Doctor Strange in the Multiverse of Madness / Rip by OldGamer
Библиотека кодирования : x265 3.5+35-e3713124d:[Windows][GCC 11.2.0][64 bit] 10bit
Настройки программы : cpuid=1111039 / frame-threads=3 / numa-pools=8 / wpp / no-pmode / no-pme / no-psnr / no-ssim / log-level=2 / input-csp=1 / input-res=1920x804 / interlace=0 / total-frames=182006 / level-idc=41 / high-tier=1 / uhd-bd=0 / ref=5 / no-allow-non-conformance / no-repeat-headers / annexb / no-aud / no-eob / no-eos / no-hrd / info / hash=0 / no-temporal-layers / open-gop / min-keyint=23 / keyint=240 / gop-lookahead=0 / bframes=12 / b-adapt=2 / b-pyramid / bframe-bias=0 / rc-lookahead=40 / lookahead-slices=0 / scenecut=40 / no-hist-scenecut / radl=0 / no-splice / no-intra-refresh / ctu=32 / min-cu-size=8 / rect / amp / max-tu-size=32 / tu-inter-depth=4 / tu-intra-depth=4 / limit-tu=1 / rdoq-level=2 / dynamic-rd=0.00 / no-ssim-rd / signhide / no-tskip / nr-intra=0 / nr-inter=0 / no-constrained-intra / no-strong-intra-smoothing / max-merge=5 / limit-refs=3 / no-limit-modes / me=3 / subme=7 / merange=57 / temporal-mvp / no-frame-dup / no-hme / weightp / weightb / no-analyze-src-pics / deblock=-2:-2 / no-sao / no-sao-non-deblock / rd=6 / selective-sao=0 / no-early-skip / no-rskip / no-fast-intra / no-tskip-fast / no-cu-lossless / b-intra / no-splitrd-skip / rdpenalty=0 / psy-rd=2.00 / psy-rdoq=1.00 / no-rd-refine / no-lossless / cbqpoffs=0 / crqpoffs=0 / rc=crf / crf=20.0 / qcomp=0.75 / qpstep=4 / stats-write=0 / stats-read=0 / vbv-maxrate=50000 / vbv-bufsize=50000 / vbv-init=0.9 / min-vbv-fullness=50.0 / max-vbv-fullness=80.0 / crf-max=0.0 / crf-min=0.0 / ipratio=1.40 / pbratio=1.30 / aq-mode=1 / aq-strength=1.00 / no-cutree / zone-count=1 / zones: / start-frame=171791 / end-frame=181291 / qp=36 / no-strict-cbr / qg-size=32 / no-rc-grain / qpmax=69 / qpmin=0 / no-const-vbv / sar=1 / overscan=0 / videoformat=5 / range=0 / colorprim=2 / transfer=2 / colormatrix=2 / chromaloc=0 / display-window=0 / cll=0,0 / min-luma=0 / max-luma=1023 / log2-max-poc-lsb=8 / vui-timing-info / vui-hrd-info / slices=1 / no-opt-qp-pps / no-opt-ref-list-length-pps / no-multi-pass-opt-rps / scenecut-bias=0.00 / hist-threshold=0.03 / no-opt-cu-delta-qp / no-aq-motion / no-hdr10 / no-hdr10-opt / no-dhdr10-opt / no-idr-recovery-sei / analysis-reuse-level=0 / analysis-save-reuse-level=0 / analysis-load-reuse-level=0 / scale-factor=0 / refine-intra=0 / refine-inter=0 / refine-mv=1 / refine-ctu-distortion=0 / no-limit-sao / ctu-info=0 / no-lowpass-dct / refine-analysis-type=0 / copy-pic=1 / max-ausize-factor=1.0 / no-dynamic-refine / no-single-sei / no-hevc-aq / no-svt / no-field / qp-adaptation-range=1.00 / scenecut-aware-qp=0conformance-window-offsets / right=0 / bottom=0 / decoder-max-rate=0 / no-vbv-live-multi-pass
Язык : English
Default : Да
Forced : Нет

Аудио #1
Идентификатор : 2
Формат : AC-3
Формат/Информация : Audio Coding 3
Коммерческое название : Dolby Digital
Идентификатор кодека : A_AC3
Продолжительность : 2 ч. 6 м.
Вид битрейта : Постоянный
Битрейт : 448 Кбит/сек
Каналы : 6 каналов
Channel layout : L R C LFE Ls Rs
Частота : 48,0 КГц
Частота кадров : 31,250 кадров/сек (1536 SPF)
Метод сжатия : С потерями
Размер потока : 405 Мбайт (8%)
Заголовок : Дубляж (Невафильм)
Язык : Russian
Service kind : Complete Main
Default : Да
Forced : Да

Аудио #2
Идентификатор : 3
Формат : AC-3
Формат/Информация : Audio Coding 3
Коммерческое название : Dolby Digital
Идентификатор кодека : A_AC3
Продолжительность : 2 ч. 6 м.
Вид битрейта : Постоянный
Битрейт : 640 Кбит/сек
Каналы : 6 каналов
Channel layout : L R C LFE Ls Rs
Частота : 48,0 КГц
Частота кадров : 31,250 кадров/сек (1536 SPF)
Метод сжатия : С потерями
Размер потока : 579 Мбайт (12%)
Заголовок : Original
Язык : English
Service kind : Complete Main
Default : Нет
Forced : Нет

Текст #1
Идентификатор : 4
Формат : UTF-8
Идентификатор кодека : S_TEXT/UTF8
Идентификатор кодека/Информация : UTF-8 Plain Text
Продолжительность : 2 ч. 4 м.
Битрейт : 1 бит/сек
Частота кадров : 0,002 кадр/сек
Count of elements : 17
Размер потока : 1,01 Кбайт (0%)
Заголовок : Forced 1 (HDRezka)
Язык : Russian
Default : Да
Forced : Нет

Текст #2
Идентификатор : 5
Формат : UTF-8
Идентификатор кодека : S_TEXT/UTF8
Идентификатор кодека/Информация : UTF-8 Plain Text
Продолжительность : 25 м. 8 с.
Битрейт : 2 бит/сек
Частота кадров : 0,007 кадр/сек
Count of elements : 10
Размер потока : 480 байт (0%)
Заголовок : Forced 2
Язык : Russian
Default : Нет
Forced : Нет

Текст #3
Идентификатор : 6
Формат : UTF-8
Идентификатор кодека : S_TEXT/UTF8
Идентификатор кодека/Информация : UTF-8 Plain Text
Продолжительность : 2 ч. 5 м.
Битрейт : 68 бит/сек
Частота кадров : 0,167 кадр/сек
Count of elements : 1253
Размер потока : 62,4 Кбайт (0%)
Заголовок : Full
Язык : Russian
Default : Нет
Forced : Нет

Текст #4
Идентификатор : 7
Формат : UTF-8
Идентификатор кодека : S_TEXT/UTF8
Идентификатор кодека/Информация : UTF-8 Plain Text
Продолжительность : 25 м. 8 с.
Битрейт : 1 бит/сек
Частота кадров : 0,007 кадр/сек
Count of elements : 10
Размер потока : 265 байт (0%)
Заголовок : Forced
Язык : English
Default : Нет
Forced : Нет

Текст #5
Идентификатор : 8
Формат : UTF-8
Идентификатор кодека : S_TEXT/UTF8
Идентификатор кодека/Информация : UTF-8 Plain Text
Продолжительность : 55 м. 41 с.
Битрейт : 60 бит/сек
Частота кадров : 0,297 кадр/сек
Count of elements : 992
Размер потока : 24,9 Кбайт (0%)
Заголовок : Full
Язык : English
Default : Нет
Forced : Нет

Текст #6
Идентификатор : 9
Формат : UTF-8
Идентификатор кодека : S_TEXT/UTF8
Идентификатор кодека/Информация : UTF-8 Plain Text
Продолжительность : 2 ч. 5 м.
Битрейт : 36 бит/сек
Частота кадров : 0,166 кадр/сек
Count of elements : 1249
Размер потока : 33,8 Кбайт (0%)
Заголовок : SDH
Язык : English
Default : Нет
Forced : Нет

Меню
00:00:00.000 : en:Chapter 01
00:03:51.397 : en:Chapter 02
00:08:26.506 : en:Chapter 03
00:14:19.441 : en:Chapter 04
00:18:23.060 : en:Chapter 05
00:24:37.601 : en:Chapter 06
00:37:58.150 : en:Chapter 07
00:47:15.499 : en:Chapter 08
00:50:03.542 : en:Chapter 09
00:55:51.056 : en:Chapter 10
00:59:46.332 : en:Chapter 11
01:02:19.652 : en:Chapter 12
01:05:18.414 : en:Chapter 13
01:07:20.786 : en:Chapter 14
01:15:03.582 : en:Chapter 15
01:17:01.867 : en:Chapter 16
01:19:18.420 : en:Chapter 17
01:23:29.337 : en:Chapter 18
01:26:34.189 : en:Chapter 19
01:28:51.326 : en:Chapter 20
01:34:47.306 : en:Chapter 21
01:37:38.644 : en:Chapter 22
01:41:27.623 : en:Chapter 23
01:51:03.281 : en:Chapter 24
01:53:26.466 : en:Chapter 25
01:55:38.848 : en:Chapter 26
01:56:32.068 : en:Chapter 27
01:58:48.371 : en:Chapter 28
01:59:26.159 : en:Chapter 29

Релиз от: OldGamer



Скачать Доктор Стрэндж: В мультивселенной безумия через торрент https://i4-imageban-ru.translate.goog/out/2022/07/24/a8e16840fac10c03c6f85db6da2505fc.png Скачать, смотреть онлайн Доктор Стрэндж: В мультивселенной безумия бесплантно в хорошем качестве Описание: Стабильность пространства временного континуума нарушена, и в мультивселенную открыт портал, через который в нашу реальность ... 9 10 8
Торрент: Зарегистрирован [2022-08-13 06:35] · скачан: 265 раз
Статус: √ проверено
Размер: 4.78 GB
Как cкачать? Как скачать Доктор Стрэндж: В мультивселенной безумия через торрент | UTorrent

% Раздел Тема Автор DL S | L
3D Фильмы [ 7.39 GB ] Доктор Стрэндж: В мультивселенной безумия в 3D / Doctor Strange in the Multiverse of Madness in 3D | Дубляж | 1080p, Дубляж slaventi-69 Скачать
1 | 0
Фильмы (HD 720p, 1080p) (48-60 fps) [ 6.01 GB ] Доктор Стрэндж: В мультивселенной безумия / Doctor Strange in the Multiverse of Madness | Дубляж | DLRip 720p / 60 FPS slaventi-69 Скачать
11 | 2
Фильмы (HD 720p, 1080p) (48-60 fps) [ 4.94 GB ] Доктор Стрэндж: В мультивселенной безумия / Doctor Strange in the Multiverse of Madness | Дубляж | DLRip 720p / 60 FPS slaventi-69 Скачать
3 | 0

28-11-2019 20:33  


Отключить вcю реклaмy на сайте, в т.ч. и в плеере онлайн просмотра!

    Дорогой пользователь! Огромная просьба, поблагодарите релизера, оцените раздачу и оставьте свои комментарий, если Вы скачали Доктор Стрэндж: В мультивселенной безумия через торрент бесплатно!!
    Комментировать посты могут только пользователи прошедшие не сложную регистрацию
    Показать сообщения:    


    Доктор Стрэндж: В мультивселенной безумия через торрент
    Скачать бесплатно Доктор Стрэндж: В мультивселенной безумия
    Доктор Стрэндж: В мультивселенной безумия скачать торрент
    Доктор Стрэндж: В мультивселенной безумия смотреть онлайн
    Cкачать фильм Доктор Стрэндж: В мультивселенной безумия бесплатно
    Доктор Стрэндж: В мультивселенной безумия скачать торрент в хорошем качестве
    Доктор Стрэндж: В мультивселенной безумия смотреть онлайн бесплатно в хорошем качестве
    Вы не можете начинать темы
    Вы не можете отвечать на сообщения
    Вы не можете редактировать свои сообщения
    Вы не можете удалять свои сообщения
    Вы не можете голосовать в опросах
    Вы не можете прикреплять файлы к сообщениям
    Вы можете скачивать файлы
    Доктор Стрэндж: В мультивселенной безумия / Doctor Strange in the Multiverse of Madness [2022, Фантастика, фэнтези, боевик, приключения, ужасы, BDRip-HEVC 1080p, ] Дубляж [Невафильм] смотреть онлайн, скачать торрент picoco.icu