Доктор Стрэндж

Лицензия

Добыча

Дубляж

Дом дракона

1 сезон

Тор

Дубляж

В эфире

Дубляж

Там, где раки поют

MVO

Властелин колец

1 сезон

Ultimate

pack

Рекомендуем

30

Пиратка

ВАЖНО

ВАЖНО

Ghostwire

Пиратка

jed

RePack

nioh2

RePack

RDR2

RePack

NEED FOR SPEED™ PAYBACK

RePack

скачать торрент

Кинопоиск HD

Острые козырьки 6 сезон

6 сезон

FAR CRY 6

RePack

скачать торрент

Лицензия

скачать торрент

MVO

1

1 сезон

скачать торрент

1 сезон

скачать торрент

Лицензия

  

Доктор Стрэндж: В мультивселенной безумия / Doctor Strange in the Multiverse of Madness (Сэм Рэйми) [2022, Фантастика, фэнтези, боевик, приключения, ужасы, комикс, BDRip-AVC] Дубляж, MVO, AVO [Невафильм, HDRezka, Jaskier, NewComers, Есарев]

Доктор Стрэндж: В мультивселенной безумия через торрент pb.wtf

Раздают: 9 [ 0 KB/s ] Качают: 4 [ 0 KB/s ]
Размер: 4.53 GB | Добавлен: 3 мес. 14 д. назад | Торрент скачан:344 раза
Смотреть онлайн | Скачать   

14-08-2022 16:50 Доктор Стрэндж: В мультивселенной безумия Скачать торрент  


Доктор Стрэндж: В мультивселенной безумия / Doctor Strange in the Multiverse of Madness
Информация Описание:
Название: Доктор Стрэндж: В мультивселенной безумия
Оригинальное название: Doctor Strange in the Multiverse of Madness
Год выхода: 2022
Жанр: Фантастика, фэнтези, боевик, приключения, ужасы, комикс, супергерой
Режиссер: Сэм Рэйми
В ролях: Бенедикт Камбербэтч, Элизабет Олсен, Чиветел Эджиофор, Бенедикт Вонг, Сочил Гомес, Майкл Стулбарг, Рэйчел МакАдамс, Патрик Стюарт, Брюс Кэмпбелл, Джулиан Хиллиард

Описание: Продолжение истории величайшего мага Земли доктора Стивена Стрэнджа. С помощью старых и новых мистических союзников Стрэндж отправляется в мультивселенную, чтобы сразиться с новым таинственным противником.

rating
Страна: США
Студия: Marvel Studios
Продолжительность: 02:06:31
Перевод: Дублированный - Невафильм , Профессиональный (многоголосый, закадровый) - HDRezka, Jaskier, NewComers , Авторский - Д. Есарев



Информация о файле:
Кодек: AVC
Формат: MKV
Качество: BDRip-AVC
Видео: MPEG-4 AVC, 1024x428, 23.976 fps, 2500 kbps
Аудио RU: AC3, 6 ch, 48 kHz, 448 kbps | Невафильм
Аудио RU: AC3, 6 ch, 48 kHz, 448 kbps | HDRezka
Аудио RU: AC3, 6 ch, 48 kHz, 448 kbps | Jaskier
Аудио RU: AC3, 6 ch, 48 kHz, 384 kbps | NewComers
Аудио RU: AC3, 6 ch, 48 kHz, 448 kbps| Д. Есарев
Аудио EN: AC3, 6 ch, 48 kHz, 448 kbps




x264 info: frame I:1669 Avg QP:14.23 size: 76466
x264 info: frame P:47622 Avg QP:17.62 size: 25111
x264 info: frame B:132715 Avg QP:19.32 size: 7900
General
Unique ID : 337388180599353396238926752292002762681 (0xFDD29998EF84AB8F06956F817F128FB9)
Complete name : D:uTorrentРипы wolf1245Doctor Strange in the Multiverse of Madness.2022.Дубляж.MVO.AVO.x264.BDRip-AVC.[wolf1245.ExKinoRay].mkv
Format : Matroska
Format version : Version 4
File size : 4.53 GiB
Duration : 2 h 6 min
Overall bit rate : 5 126 kb/s
Movie name : Doctor Strange in the Multiverse of Madness.2022.Дубляж.MVO.AVO.x264.BDRip-AVC.[wolf1245.ExKinoRay]
Encoded date : UTC 2022-08-14 16:34:39
Writing application : mkvmerge v70.0.0 ('Caught A Lite Sneeze') 64-bit
Writing library : libebml v1.4.2 + libmatroska v1.6.4
Video
ID : 1
Format : AVC
Format/Info : Advanced Video Codec
Format profile : [email protected]
Format settings : CABAC / 12 Ref Frames
Format settings, CABAC : Yes
Format settings, Reference frames : 12 frames
Codec ID : V_MPEG4/ISO/AVC
Duration : 2 h 6 min
Bit rate : 2 500 kb/s
Width : 1 024 pixels
Height : 428 pixels
Display aspect ratio : 2.40:1
Frame rate mode : Constant
Frame rate : 23.976 (24000/1001) FPS
Color space : YUV
Chroma subsampling : 4:2:0
Bit depth : 8 bits
Scan type : Progressive
Bits/(Pixel*Frame) : 0.238
Stream size : 2.21 GiB (49%)
Title : -=[wolf1245.ExKinoRay]=-
Writing library : x264 core 163 r3060 5db6aa6
Encoding settings : cabac=1 / ref=12 / deblock=1:-1:-1 / analyse=0x3:0x133 / me=umh / subme=10 / psy=1 / psy_rd=1.02:0.15 / mixed_ref=1 / me_range=32 / chroma_me=1 / trellis=2 / 8x8dct=1 / cqm=0 / deadzone=22,11 / fast_pskip=1 / chroma_qp_offset=-3 / threads=10 / lookahead_threads=2 / sliced_threads=0 / nr=0 / decimate=0 / interlaced=0 / bluray_compat=0 / constrained_intra=0 / bframes=12 / b_pyramid=2 / b_adapt=2 / b_bias=0 / direct=3 / weightb=1 / open_gop=0 / weightp=2 / keyint=240 / keyint_min=24 / scenecut=40 / intra_refresh=0 / rc_lookahead=150 / rc=2pass / mbtree=0 / bitrate=2500 / ratetol=1.0 / qcomp=0.75 / qpmin=0 / qpmax=69 / qpstep=4 / cplxblur=20.0 / qblur=0.5 / vbv_maxrate=50000 / vbv_bufsize=62500 / nal_hrd=none / filler=0 / ip_ratio=1.37 / pb_ratio=1.27 / aq=1:1.10
Language : English
Default : Yes
Forced : No
Audio #1
ID : 2
Format : AC-3
Format/Info : Audio Coding 3
Commercial name : Dolby Digital
Codec ID : A_AC3
Duration : 2 h 6 min
Bit rate mode : Constant
Bit rate : 448 kb/s
Channel(s) : 6 channels
Channel layout : L R C LFE Ls Rs
Sampling rate : 48.0 kHz
Frame rate : 31.250 FPS (1536 SPF)
Compression mode : Lossy
Stream size : 405 MiB (9%)
Title : Дубляж | Невафильм | RUS
Language : Russian
Service kind : Complete Main
Default : Yes
Forced : Yes
Audio #2
ID : 3
Format : AC-3
Format/Info : Audio Coding 3
Commercial name : Dolby Digital
Codec ID : A_AC3
Duration : 2 h 6 min
Bit rate mode : Constant
Bit rate : 448 kb/s
Channel(s) : 6 channels
Channel layout : L R C LFE Ls Rs
Sampling rate : 48.0 kHz
Frame rate : 31.250 FPS (1536 SPF)
Compression mode : Lossy
Stream size : 405 MiB (9%)
Title : MVO | HDRezka | RUS
Language : Russian
Service kind : Complete Main
Default : No
Forced : No
Audio #3
ID : 4
Format : AC-3
Format/Info : Audio Coding 3
Commercial name : Dolby Digital
Codec ID : A_AC3
Duration : 2 h 6 min
Bit rate mode : Constant
Bit rate : 448 kb/s
Channel(s) : 6 channels
Channel layout : L R C LFE Ls Rs
Sampling rate : 48.0 kHz
Frame rate : 31.250 FPS (1536 SPF)
Compression mode : Lossy
Stream size : 405 MiB (9%)
Title : MVO | Jaskier | RUS
Language : Russian
Service kind : Complete Main
Default : No
Forced : No
Audio #4
ID : 5
Format : AC-3
Format/Info : Audio Coding 3
Commercial name : Dolby Digital
Codec ID : A_AC3
Duration : 2 h 6 min
Bit rate mode : Constant
Bit rate : 384 kb/s
Channel(s) : 6 channels
Channel layout : L R C LFE Ls Rs
Sampling rate : 48.0 kHz
Frame rate : 31.250 FPS (1536 SPF)
Compression mode : Lossy
Stream size : 348 MiB (7%)
Title : MVO | NewComers | RUS
Language : Russian
Service kind : Complete Main
Default : No
Forced : No
Audio #5
ID : 6
Format : AC-3
Format/Info : Audio Coding 3
Commercial name : Dolby Digital
Codec ID : A_AC3
Duration : 2 h 6 min
Bit rate mode : Constant
Bit rate : 448 kb/s
Channel(s) : 6 channels
Channel layout : L R C LFE Ls Rs
Sampling rate : 48.0 kHz
Frame rate : 31.250 FPS (1536 SPF)
Compression mode : Lossy
Stream size : 405 MiB (9%)
Title : AVO | Yesarev | RUS
Language : Russian
Service kind : Complete Main
Default : No
Forced : No
Audio #6
ID : 7
Format : AC-3
Format/Info : Audio Coding 3
Commercial name : Dolby Digital
Codec ID : A_AC3
Duration : 2 h 6 min
Bit rate mode : Constant
Bit rate : 448 kb/s
Channel(s) : 6 channels
Channel layout : L R C LFE Ls Rs
Sampling rate : 48.0 kHz
Frame rate : 31.250 FPS (1536 SPF)
Compression mode : Lossy
Stream size : 405 MiB (9%)
Title : Original | ENG
Language : English
Service kind : Complete Main
Default : No
Forced : No
Text #1
ID : 8
Format : UTF-8
Codec ID : S_TEXT/UTF8
Codec ID/Info : UTF-8 Plain Text
Duration : 2 h 4 min
Bit rate : 1 b/s
Count of elements : 17
Stream size : 1.01 KiB (0%)
Title : Forced 1
Language : Russian
Default : Yes
Forced : Yes
Text #2
ID : 9
Format : UTF-8
Codec ID : S_TEXT/UTF8
Codec ID/Info : UTF-8 Plain Text
Duration : 25 min 8 s
Bit rate : 2 b/s
Count of elements : 10
Stream size : 480 Bytes (0%)
Title : Forced 2
Language : Russian
Default : No
Forced : No
Text #3
ID : 10
Format : UTF-8
Codec ID : S_TEXT/UTF8
Codec ID/Info : UTF-8 Plain Text
Duration : 2 h 5 min
Bit rate : 68 b/s
Count of elements : 1253
Stream size : 62.4 KiB (0%)
Title : Full
Language : Russian
Default : No
Forced : No
Text #4
ID : 11
Format : UTF-8
Codec ID : S_TEXT/UTF8
Codec ID/Info : UTF-8 Plain Text
Duration : 25 min 8 s
Bit rate : 1 b/s
Count of elements : 10
Stream size : 265 Bytes (0%)
Title : Forced
Language : English
Default : No
Forced : No
Text #5
ID : 12
Format : UTF-8
Codec ID : S_TEXT/UTF8
Codec ID/Info : UTF-8 Plain Text
Duration : 55 min 41 s
Bit rate : 60 b/s
Count of elements : 992
Stream size : 24.9 KiB (0%)
Title : Full
Language : English
Default : No
Forced : No
Text #6
ID : 13
Format : UTF-8
Codec ID : S_TEXT/UTF8
Codec ID/Info : UTF-8 Plain Text
Duration : 2 h 5 min
Bit rate : 36 b/s
Count of elements : 1249
Stream size : 33.8 KiB (0%)
Title : SDH
Language : English
Default : No
Forced : No
Menu
00:00:00.000 : :Chapter 01
00:03:51.397 : :Chapter 02
00:08:26.506 : :Chapter 03
00:14:19.441 : :Chapter 04
00:18:23.060 : :Chapter 05
00:24:37.601 : :Chapter 06
00:37:58.150 : :Chapter 07
00:47:15.499 : :Chapter 08
00:50:03.542 : :Chapter 09
00:55:51.056 : :Chapter 10
00:59:46.332 : :Chapter 11
01:02:19.652 : :Chapter 12
01:05:18.414 : :Chapter 13
01:07:20.786 : :Chapter 14
01:15:03.582 : :Chapter 15
01:17:01.867 : :Chapter 16
01:19:18.420 : :Chapter 17
01:23:29.337 : :Chapter 18
01:26:34.189 : :Chapter 19
01:28:51.326 : :Chapter 20
01:34:47.306 : :Chapter 21
01:37:38.644 : :Chapter 22
01:41:27.623 : :Chapter 23
01:51:03.281 : :Chapter 24
01:53:26.466 : :Chapter 25
01:55:38.848 : :Chapter 26
01:56:32.068 : :Chapter 27
01:58:48.371 : :Chapter 28
01:59:26.159 : :Chapter 29
Релиз от:
Автор релиза:



Скачать Доктор Стрэндж: В мультивселенной безумия через торрент http://i120.fastpic.org/big/2022/0623/01/615b6706dab1b202cc0aa12d31af9701.jpg Скачать, смотреть онлайн Доктор Стрэндж: В мультивселенной безумия бесплантно в хорошем качестве Описание: Название: Доктор Стрэндж: В мультивселенной безумия Оригинальное название: Doctor Strange in the Multiverse of Madness Год ... 10 10 5
Торрент: Зарегистрирован [2022-08-14 16:50] · скачан: 344 раз
Статус: √ проверено
Размер: 4.53 GB
Как cкачать? Как скачать Доктор Стрэндж: В мультивселенной безумия через торрент | UTorrent

% Раздел Тема Автор DL S | L
Фильмы 2022 [DVDrip, WEB-DLRip, HDrip] (DUB, MVO) [ 1.47 GB ] Доктор Стрэндж: В мультивселенной безумия / Doctor Strange in the Multiverse of Madness | HDRezka Studio | DLRip bober100 Скачать
13 | 0
Фильмы [HD 720p, 1080p] (Хороший звук DUB, MVO) [ 14.63 GB ] Доктор Стрэндж: В мультивселенной безумия / Doctor Strange in the Multiverse of Madness | DUB | 1080p bober100 Скачать
9 | 0
Фильмы (WEB-DL 720p, 1080p) [ 8.43 GB ] Доктор Стрэндж: В мультивселенной безумия / Doctor Strange in the Multiverse of Madness | MVO | 1080p bober100 Скачать
16 | 0
3D Фильмы [ 7.39 GB ] Доктор Стрэндж: В мультивселенной безумия в 3D / Doctor Strange in the Multiverse of Madness in 3D | Дубляж | 1080p, Дубляж slaventi-69 Скачать
1 | 0
Фильмы (HD 720p, 1080p) (48-60 fps) [ 6.01 GB ] Доктор Стрэндж: В мультивселенной безумия / Doctor Strange in the Multiverse of Madness | Дубляж | DLRip 720p / 60 FPS slaventi-69 Скачать
11 | 2
Фильмы (HD 720p, 1080p) (48-60 fps) [ 4.94 GB ] Доктор Стрэндж: В мультивселенной безумия / Doctor Strange in the Multiverse of Madness | Дубляж | DLRip 720p / 60 FPS slaventi-69 Скачать
3 | 0
Фильмы [HD 720p, 1080p] (Хороший звук DUB, MVO) [ 4.78 GB ] Доктор Стрэндж: В мультивселенной безумия / Doctor Strange in the Multiverse of Madness | DUB | 1080p, (10 bit bober100 Скачать
3 | 0

28-11-2019 20:33  


Отключить вcю реклaмy на сайте, в т.ч. и в плеере онлайн просмотра!

    Дорогой пользователь! Огромная просьба, поблагодарите релизера, оцените раздачу и оставьте свои комментарий, если Вы скачали Доктор Стрэндж: В мультивселенной безумия через торрент бесплатно!!
    Комментировать посты могут только пользователи прошедшие не сложную регистрацию
    Показать сообщения:    


    Доктор Стрэндж: В мультивселенной безумия через торрент
    Скачать бесплатно Доктор Стрэндж: В мультивселенной безумия
    Доктор Стрэндж: В мультивселенной безумия скачать торрент
    Доктор Стрэндж: В мультивселенной безумия смотреть онлайн
    Cкачать фильм Доктор Стрэндж: В мультивселенной безумия бесплатно
    Доктор Стрэндж: В мультивселенной безумия скачать торрент в хорошем качестве
    Доктор Стрэндж: В мультивселенной безумия смотреть онлайн бесплатно в хорошем качестве
    Вы можете начинать темы
    Вы можете отвечать на сообщения
    Вы не можете редактировать свои сообщения
    Вы не можете удалять свои сообщения
    Вы не можете голосовать в опросах
    Вы не можете прикреплять файлы к сообщениям
    Вы можете скачивать файлы
    Доктор Стрэндж: В мультивселенной безумия / Doctor Strange in the Multiverse of Madness [2022, Фантастика, фэнтези, боевик, приключения, ужасы, комикс, BDRip-AVC] Дубляж, MVO, AVO [Невафильм, HDRezka, Jaskier, NewComers, Есарев] смотреть онлайн, скачать торрент picoco.icu