Лицензия

MVO

1

1 сезон

Лицензия

Лицензия

13

MVO

1 сезон

Deluxe Edition

pack

Рекомендуем

30

Repack

ВАЖНО

ВАЖНО

Ghostwire

RePack

jed

RePack

fifa19

RePack

RDR2

RePack

NEED FOR SPEED™ PAYBACK

RePack

Кинопоиск HD

 Острые козырьки 6 сезон

6 сезон

FAR CRY 6

RePack

Лицензия

MVO

1

1 сезон

1 сезон

Лицензия

  

Свадебный сезон / Wedding Season (Том Дей) [2022, Мелодрама, комедия, WEB-DLRip-AVC] DVO [Pazl Voice] от ExKinoRay

Свадебный сезон через торрент pb.wtf

Размер: 1.89 GB | Добавлен: 1 мес. 8 д. назад | Торрент скачан:18 раз
Смотреть онлайн Свадебный сезон | Скачать   

16-08-2022 15:38 Свадебный сезон Скачать торрент  


Свадебный сезон / Wedding Season
Информация о фильме:
Название: Свадебный сезон
Оригинальное название: Wedding Season
Год выхода: 2022
Жанр: Мелодрама, комедия
Режиссер: Том Дей
В ролях: Паллави Шарда, Сурадж Шарма, Арианна Афсар, Шон Клайар, Вина Суд, Ризван Манжи, Рут Гудвин, Дэмиэн Томпсон, Маной Суд, Субхаш Сантош

Описание: Чтобы любыми путями остановить навязчивых родителей, заявляющих, что необходимо уже в срочном порядке отыскать себе жениха и невесту, Аша и Рави разрабатывает грандиозный план - выдавая себя за любящую пару, чтобы угодить исключительно папам и мамам. Результат в конечном итоге превосходит все их благополучные ожидания. Складывается такое впечатление, что предки чувствуют себя максимально удовлетворенными и обдумывают будущее. Но крайней неожиданностью для самих персонажей выпадет тот момент, когда вдруг придет осознание, что они и правда влюблены, и абсолютно бессильны перед взаимной влюбленностью.



Страна: США
Студия: Jax MediaImagine Entertainment, Wildling Pictures Samosa Stories
Продолжительность: 01:39:24
Перевод: Любительский (двухголосый, закадровый) - Pazl Voice



Информация о файле:
Кодек: AVC
Формат: MKV
Качество: WEB-DLRip-AVC
Видео: MPEG-4 AVC, 1024x428, 23.976 fps, 1950 kbps
Аудио RU: AC3, 6 ch, 48 kHz, 384 kbps
Субтитры: Русские, английские, испанские, французские, украинские, немецкие, португальские, польские, чешские, бразильские, корейские, японские, норвежские, арабские, турецкие, вьетнамские, китайские




[x264] frame I:1743 Avg QP:14.88 size: 73553
[x264] frame P:31254 Avg QP:18.43 size: 22111
[x264] frame B:110013 Avg QP:20.23 size: 5762
General
Unique ID : 320680288727226657561525119596409058360 (0xF140C6EDA15D1F4304AA56D6C552F438)
Complete name : D:uTorrentРипы wolf1245Wedding Season.2022.DVO.Pazl.X264.WEB-DLRip-AVC.[wolf1245.ExKinoRay].mkv
Format : Matroska
Format version : Version 4
File size : 1.89 GiB
Duration : 1 h 39 min
Overall bit rate : 2 726 kb/s
Movie name : Wedding Season.2022.DVO.Pazl.X264.WEB-DLRip-AVC.[wolf1245.ExKinoRay]
Encoded date : UTC 2022-08-16 15:16:02
Writing application : mkvmerge v70.0.0 ('Caught A Lite Sneeze') 64-bit
Writing library : libebml v1.4.2 + libmatroska v1.6.4
Cover : Yes
Attachments : coveri.png
Video
ID : 1
Format : AVC
Format/Info : Advanced Video Codec
Format profile : [email protected]
Format settings : CABAC / 12 Ref Frames
Format settings, CABAC : Yes
Format settings, Reference frames : 12 frames
Codec ID : V_MPEG4/ISO/AVC
Duration : 1 h 39 min
Bit rate : 1 950 kb/s
Width : 1 024 pixels
Height : 428 pixels
Display aspect ratio : 2.40:1
Frame rate mode : Constant
Frame rate : 23.976 (24000/1001) FPS
Color space : YUV
Chroma subsampling : 4:2:0
Bit depth : 8 bits
Scan type : Progressive
Bits/(Pixel*Frame) : 0.186
Stream size : 1.35 GiB (71%)
Title : -=[wolf1245.ExKinoRay]=-
Writing library : x264 core 163
Encoding settings : cabac=1 / ref=12 / deblock=1:-1:-1 / analyse=0x3:0x133 / me=umh / subme=10 / psy=1 / psy_rd=1.02:0.15 / mixed_ref=1 / me_range=32 / chroma_me=1 / trellis=2 / 8x8dct=1 / cqm=0 / deadzone=21,11 / fast_pskip=1 / chroma_qp_offset=-3 / threads=10 / lookahead_threads=2 / sliced_threads=0 / nr=0 / decimate=0 / interlaced=0 / bluray_compat=0 / constrained_intra=0 / bframes=12 / b_pyramid=2 / b_adapt=2 / b_bias=0 / direct=3 / weightb=1 / open_gop=0 / weightp=2 / keyint=240 / keyint_min=24 / scenecut=40 / intra_refresh=0 / rc_lookahead=150 / rc=2pass / mbtree=0 / bitrate=1950 / ratetol=1.0 / qcomp=0.70 / qpmin=0 / qpmax=69 / qpstep=4 / cplxblur=20.0 / qblur=0.5 / vbv_maxrate=50000 / vbv_bufsize=62500 / nal_hrd=none / filler=0 / ip_ratio=1.37 / pb_ratio=1.27 / aq=2:1.00
Language : English
Default : Yes
Forced : No
Audio #1
ID : 2
Format : AC-3
Format/Info : Audio Coding 3
Commercial name : Dolby Digital
Codec ID : A_AC3
Duration : 1 h 39 min
Bit rate mode : Constant
Bit rate : 384 kb/s
Channel(s) : 6 channels
Channel layout : L R C LFE Ls Rs
Sampling rate : 48.0 kHz
Frame rate : 31.250 FPS (1536 SPF)
Compression mode : Lossy
Stream size : 273 MiB (14%)
Title : DVO | Pazl Voice | RUS
Language : Russian
Service kind : Complete Main
Default : Yes
Forced : No
Text #1
ID : 4
Format : UTF-8
Codec ID : S_TEXT/UTF8
Codec ID/Info : UTF-8 Plain Text
Duration : 1 h 37 min
Bit rate : 115 b/s
Count of elements : 1508
Stream size : 81.9 KiB (0%)
Language : Russian
Default : No
Forced : No
Text #2
ID : 5
Format : UTF-8
Codec ID : S_TEXT/UTF8
Codec ID/Info : UTF-8 Plain Text
Duration : 44 min 8 s
Bit rate : 0 b/s
Count of elements : 4
Stream size : 107 Bytes (0%)
Title : Forced
Language : English
Default : No
Forced : No
Text #3
ID : 6
Format : UTF-8
Codec ID : S_TEXT/UTF8
Codec ID/Info : UTF-8 Plain Text
Duration : 1 h 31 min
Bit rate : 81 b/s
Count of elements : 1548
Stream size : 54.4 KiB (0%)
Language : English
Default : No
Forced : No
Text #4
ID : 7
Format : UTF-8
Codec ID : S_TEXT/UTF8
Codec ID/Info : UTF-8 Plain Text
Duration : 1 h 34 min
Bit rate : 93 b/s
Count of elements : 1784
Stream size : 64.9 KiB (0%)
Title : SDH
Language : English
Default : No
Forced : No
Text #5
ID : 8
Format : UTF-8
Codec ID : S_TEXT/UTF8
Codec ID/Info : UTF-8 Plain Text
Duration : 1 h 37 min
Bit rate : 125 b/s
Count of elements : 1550
Stream size : 89.4 KiB (0%)
Language : Arabic
Default : No
Forced : No
Text #6
ID : 9
Format : UTF-8
Codec ID : S_TEXT/UTF8
Codec ID/Info : UTF-8 Plain Text
Duration : 1 h 37 min
Bit rate : 70 b/s
Count of elements : 1492
Stream size : 50.4 KiB (0%)
Language : Czech
Default : No
Forced : No
Text #7
ID : 10
Format : UTF-8
Codec ID : S_TEXT/UTF8
Codec ID/Info : UTF-8 Plain Text
Duration : 1 h 37 min
Bit rate : 68 b/s
Count of elements : 1469
Stream size : 48.7 KiB (0%)
Language : Danish
Default : No
Forced : No
Text #8
ID : 11
Format : UTF-8
Codec ID : S_TEXT/UTF8
Codec ID/Info : UTF-8 Plain Text
Duration : 1 h 37 min
Bit rate : 73 b/s
Count of elements : 1484
Stream size : 52.4 KiB (0%)
Language : German
Default : No
Forced : No
Text #9
ID : 12
Format : UTF-8
Codec ID : S_TEXT/UTF8
Codec ID/Info : UTF-8 Plain Text
Duration : 1 h 31 min
Bit rate : 88 b/s
Count of elements : 1535
Stream size : 58.9 KiB (0%)
Language : German
Default : No
Forced : No
Text #10
ID : 13
Format : UTF-8
Codec ID : S_TEXT/UTF8
Codec ID/Info : UTF-8 Plain Text
Duration : 1 h 31 min
Bit rate : 93 b/s
Count of elements : 1632
Stream size : 62.2 KiB (0%)
Title : SDH
Language : German
Default : No
Forced : No
Text #11
ID : 14
Format : UTF-8
Codec ID : S_TEXT/UTF8
Codec ID/Info : UTF-8 Plain Text
Duration : 1 h 36 min
Bit rate : 120 b/s
Count of elements : 1548
Stream size : 85.9 KiB (0%)
Language : Greek
Default : No
Forced : No
Text #12
ID : 15
Format : UTF-8
Codec ID : S_TEXT/UTF8
Codec ID/Info : UTF-8 Plain Text
Duration : 1 h 37 min
Bit rate : 71 b/s
Count of elements : 1510
Stream size : 50.8 KiB (0%)
Title : Latin American
Language : Spanish
Default : No
Forced : No
Text #13
ID : 16
Format : UTF-8
Codec ID : S_TEXT/UTF8
Codec ID/Info : UTF-8 Plain Text
Duration : 1 h 37 min
Bit rate : 68 b/s
Count of elements : 1504
Stream size : 48.7 KiB (0%)
Language : Spanish
Default : No
Forced : No
Text #14
ID : 17
Format : UTF-8
Codec ID : S_TEXT/UTF8
Codec ID/Info : UTF-8 Plain Text
Duration : 1 h 36 min
Bit rate : 70 b/s
Count of elements : 1497
Stream size : 50.2 KiB (0%)
Language : Finnish
Default : No
Forced : No
Text #15
ID : 18
Format : UTF-8
Codec ID : S_TEXT/UTF8
Codec ID/Info : UTF-8 Plain Text
Duration : 1 h 37 min
Bit rate : 69 b/s
Count of elements : 1440
Stream size : 49.2 KiB (0%)
Language : French
Default : No
Forced : No
Text #16
ID : 19
Format : UTF-8
Codec ID : S_TEXT/UTF8
Codec ID/Info : UTF-8 Plain Text
Duration : 1 h 31 min
Bit rate : 84 b/s
Count of elements : 1558
Stream size : 56.6 KiB (0%)
Language : French
Default : No
Forced : No
Text #17
ID : 20
Format : UTF-8
Codec ID : S_TEXT/UTF8
Codec ID/Info : UTF-8 Plain Text
Duration : 1 h 34 min
Bit rate : 94 b/s
Count of elements : 1798
Stream size : 65.5 KiB (0%)
Title : SDH
Language : French
Default : No
Forced : No
Text #18
ID : 21
Format : UTF-8
Codec ID : S_TEXT/UTF8
Codec ID/Info : UTF-8 Plain Text
Duration : 1 h 37 min
Bit rate : 119 b/s
Count of elements : 1510
Stream size : 84.6 KiB (0%)
Language : Hebrew
Default : No
Forced : No
Text #19
ID : 22
Format : UTF-8
Codec ID : S_TEXT/UTF8
Codec ID/Info : UTF-8 Plain Text
Duration : 1 h 37 min
Bit rate : 67 b/s
Count of elements : 1479
Stream size : 47.9 KiB (0%)
Language : Croatian
Default : No
Forced : No
Text #20
ID : 23
Format : UTF-8
Codec ID : S_TEXT/UTF8
Codec ID/Info : UTF-8 Plain Text
Duration : 1 h 37 min
Bit rate : 71 b/s
Count of elements : 1475
Stream size : 50.6 KiB (0%)
Language : Hungarian
Default : No
Forced : No
Text #21
ID : 24
Format : UTF-8
Codec ID : S_TEXT/UTF8
Codec ID/Info : UTF-8 Plain Text
Duration : 1 h 37 min
Bit rate : 69 b/s
Count of elements : 1455
Stream size : 49.3 KiB (0%)
Language : Indonesian
Default : No
Forced : No
Text #22
ID : 25
Format : UTF-8
Codec ID : S_TEXT/UTF8
Codec ID/Info : UTF-8 Plain Text
Duration : 1 h 37 min
Bit rate : 70 b/s
Count of elements : 1483
Stream size : 49.9 KiB (0%)
Language : Italian
Default : No
Forced : No
Text #23
ID : 26
Format : UTF-8
Codec ID : S_TEXT/UTF8
Codec ID/Info : UTF-8 Plain Text
Duration : 1 h 31 min
Bit rate : 70 b/s
Count of elements : 1628
Stream size : 47.1 KiB (0%)
Language : Japanese
Default : No
Forced : No
Text #24
ID : 27
Format : UTF-8
Codec ID : S_TEXT/UTF8
Codec ID/Info : UTF-8 Plain Text
Duration : 1 h 37 min
Bit rate : 90 b/s
Count of elements : 1559
Stream size : 64.5 KiB (0%)
Language : Korean
Default : No
Forced : No
Text #25
ID : 28
Format : UTF-8
Codec ID : S_TEXT/UTF8
Codec ID/Info : UTF-8 Plain Text
Duration : 1 h 37 min
Bit rate : 69 b/s
Count of elements : 1524
Stream size : 49.1 KiB (0%)
Language : Malay
Default : No
Forced : No
Text #26
ID : 29
Format : UTF-8
Codec ID : S_TEXT/UTF8
Codec ID/Info : UTF-8 Plain Text
Duration : 1 h 37 min
Bit rate : 69 b/s
Count of elements : 1433
Stream size : 49.6 KiB (0%)
Language : Norwegian Bokmal
Default : No
Forced : No
Text #27
ID : 30
Format : UTF-8
Codec ID : S_TEXT/UTF8
Codec ID/Info : UTF-8 Plain Text
Duration : 1 h 37 min
Bit rate : 64 b/s
Count of elements : 1424
Stream size : 45.9 KiB (0%)
Language : Dutch
Default : No
Forced : No
Text #28
ID : 31
Format : UTF-8
Codec ID : S_TEXT/UTF8
Codec ID/Info : UTF-8 Plain Text
Duration : 1 h 37 min
Bit rate : 66 b/s
Count of elements : 1466
Stream size : 47.3 KiB (0%)
Language : Polish
Default : No
Forced : No
Text #29
ID : 32
Format : UTF-8
Codec ID : S_TEXT/UTF8
Codec ID/Info : UTF-8 Plain Text
Duration : 1 h 37 min
Bit rate : 71 b/s
Count of elements : 1502
Stream size : 50.5 KiB (0%)
Title : Brazilian
Language : Portuguese
Default : No
Forced : No
Text #30
ID : 33
Format : UTF-8
Codec ID : S_TEXT/UTF8
Codec ID/Info : UTF-8 Plain Text
Duration : 1 h 37 min
Bit rate : 70 b/s
Count of elements : 1488
Stream size : 50.2 KiB (0%)
Language : Portuguese
Default : No
Forced : No
Text #31
ID : 34
Format : UTF-8
Codec ID : S_TEXT/UTF8
Codec ID/Info : UTF-8 Plain Text
Duration : 1 h 37 min
Bit rate : 77 b/s
Count of elements : 1442
Stream size : 55.1 KiB (0%)
Language : Romanian
Default : No
Forced : No
Text #32
ID : 35
Format : UTF-8
Codec ID : S_TEXT/UTF8
Codec ID/Info : UTF-8 Plain Text
Duration : 1 h 37 min
Bit rate : 73 b/s
Count of elements : 1244
Stream size : 52.5 KiB (0%)
Language : Swedish
Default : No
Forced : No
Text #33
ID : 36
Format : UTF-8
Codec ID : S_TEXT/UTF8
Codec ID/Info : UTF-8 Plain Text
Duration : 1 h 37 min
Bit rate : 206 b/s
Count of elements : 1533
Stream size : 147 KiB (0%)
Language : Thai
Default : No
Forced : No
Text #34
ID : 37
Format : UTF-8
Codec ID : S_TEXT/UTF8
Codec ID/Info : UTF-8 Plain Text
Duration : 1 h 37 min
Bit rate : 68 b/s
Count of elements : 1462
Stream size : 49.0 KiB (0%)
Language : Turkish
Default : No
Forced : No
Text #35
ID : 38
Format : UTF-8
Codec ID : S_TEXT/UTF8
Codec ID/Info : UTF-8 Plain Text
Duration : 1 h 37 min
Bit rate : 113 b/s
Count of elements : 1501
Stream size : 80.7 KiB (0%)
Language : Ukrainian
Default : No
Forced : No
Text #36
ID : 39
Format : UTF-8
Codec ID : S_TEXT/UTF8
Codec ID/Info : UTF-8 Plain Text
Duration : 1 h 37 min
Bit rate : 101 b/s
Count of elements : 1479
Stream size : 71.9 KiB (0%)
Language : Vietnamese
Default : No
Forced : No
Text #37
ID : 40
Format : UTF-8
Codec ID : S_TEXT/UTF8
Codec ID/Info : UTF-8 Plain Text
Duration : 1 h 37 min
Bit rate : 81 b/s
Count of elements : 1518
Stream size : 58.2 KiB (0%)
Title : Simplified
Language : Chinese
Default : No
Forced : No
Text #38
ID : 41
Format : UTF-8
Codec ID : S_TEXT/UTF8
Codec ID/Info : UTF-8 Plain Text
Duration : 1 h 37 min
Bit rate : 75 b/s
Count of elements : 1509
Stream size : 53.6 KiB (0%)
Title : Traditional
Language : Chinese
Default : No
Forced : No
Релиз от:
Автор релиза:



Скачать Свадебный сезон через торрент http://i120.fastpic.org/big/2022/0816/b7/bfd40061b8540d95fede3847508f70b7.jpg Скачать, смотреть онлайн Свадебный сезон бесплантно в хорошем качестве Описание: Чтобы любыми путями остановить навязчивых родителей, заявляющих, что необходимо уже в срочном порядке отыскать себе жениха и ... 9.5 10 4
Торрент: Зарегистрирован [2022-08-16 15:38] · скачан: 18 раз
Статус: √ проверено
Размер: 1.89 GB
Как cкачать? Как скачать Свадебный сезон через торрент | UTorrent

28-11-2019 20:33  

Отключить вcю реклaмy на сайте

16-08-2022 15:51 Свадебный сезон Скачать торрент  

ну и страшные все эти америкосы



    Дорогой пользователь! Огромная просьба, поблагодарите релизера, оцените раздачу и оставьте свои комментарий, если Вы скачали Свадебный сезон через торрент бесплатно!!
    Комментировать посты могут только пользователи прошедшие не сложную регистрацию
    Показать сообщения:    


    Свадебный сезон через торрент
    Скачать бесплатно Свадебный сезон
    Свадебный сезон скачать торрент
    Свадебный сезон смотреть онлайн
    Cкачать фильм Свадебный сезон бесплатно
    Свадебный сезон скачать торрент в хорошем качестве
    Свадебный сезон смотреть онлайн бесплатно в хорошем качестве
    Вы можете начинать темы
    Вы можете отвечать на сообщения
    Вы не можете редактировать свои сообщения
    Вы не можете удалять свои сообщения
    Вы не можете голосовать в опросах
    Вы не можете прикреплять файлы к сообщениям
    Вы можете скачивать файлы