Доктор Стрэндж

Лицензия

Добыча

Дубляж

Уэнсдэй

1 сезон

Тор

Дубляж

В эфире

Дубляж

Там, где раки поют

MVO

Властелин колец

1 сезон

Deluxe

pack

Рекомендуем

30

Пиратка

ВАЖНО

ВАЖНО

Ghostwire

Пиратка

jed

RePack

nioh2

RePack

RDR2

RePack

NEED FOR SPEED™ PAYBACK

RePack

скачать торрент

Кинопоиск HD

Острые козырьки 6 сезон

6 сезон

FAR CRY 6

RePack

скачать торрент

Лицензия

скачать торрент

MVO

1

1 сезон

скачать торрент

1 сезон

скачать торрент

Лицензия

  

Человек-паук: Нет пути домой в 3Д / Spider-Man: No Way Home 3D (Джон Уоттс) [2021 г., фантастика, боевик, приключения, фэнтези, 3D BDRip 1080p, Дубляж] Анаглиф (Дюбуа) от R.G. HD-Films

Человек-паук: Нет пути домой в 3Д через торрент pb.wtf

Размер: 9.89 GB | Добавлен: 3 мес. 18 д. назад | Торрент скачан:2 раза
Смотреть онлайн | Скачать   

18-08-2022 15:03 Человек-паук: Нет пути домой в 3Д Скачать торрент  

Человек-паук: Нет пути домой / Spider-Man: No Way Home
Год выпуска: 2021
Страна: США
Жанр: фантастика, боевик, приключения, фэнтези
Продолжительность: 02:28:09
Перевод: Дубляж
Субтитры: Русские, украинские, английские

Режиссер: Джон Уоттс

Бюджет: $200 000 000
Премьера в мире: 13 декабря 2021

rating

В ролях: Том Холланд, Зендая, Бенедикт Камбербэтч, Мариса Томей, Джейкоб Баталон, Уиллем Дефо, Альфред Молина, Джейми Фокс, Рис Иванс, Томас Хейден Черч, Джон Фавро, Тоби Магуайр, Эндрю Гарфилд, Тони Револори, Дж.К. Симмонс, Бенедикт Вонг, Энгаури Райс, Мартин Старр, Дж.Б. Смув, Гарри Холланд, Хэннибал Бересс, Паула Ньюсом, Хорхе Лендеборг мл., Чарли Кокс

Описание: Теперь, когда весь мир узнал, кто скрывается за маской Человека-паука, жизнь Питера Паркера и его близких меняется не в лучшую сторону. Не придумав ничего лучше, Паркер обращается за помощью к Доктору Стрэнджу. Но в процессе заклинания, которое должно было заставить человечество забыть о Питере, что-то идет не так, в результате чего открывается портал в Мультивселенную. Герою предстоит познакомиться со всеми суперзлодеями, с которыми приходилось бороться Человеку-пауку в альтернативных реальностях.

Доп. информация: Формат 3D: Анаглиф (Дюбуа)



Качество: 3D BDRip 1080p
Формат: MKV
Видео кодек: H.264
Аудио кодек: AC3
Видео: 1920 x 1080 (16:9), 8131 kbps, 23,976 fps, 0.164 bpp
Аудио#1: Русский / E-AC-3 / 48 KHz / 5.1 ch / 384 Kbps Дубляж
Аудио#2: Украинский / E-AC-3 / 48 KHz / 5.1 ch / 384 Kbps (Дубляж - LeDoyen)
Аудио#3: English / AC3 / 48 KHz / 5.1 ch / 640 Kbps (Original - BD 3D)
Релиз от: Автор рипа: slaventi-69
x264 [info]: using cpu capabilities: MMX2 SSE2Fast SSSE3 SSE4.2 AVX AVX2 FMA3 LZCNT BMI1 BMI2
x264 [info]: profile High, level 4.1
x264 [info]: frame I:2118 Avg QP:10.65 size:143104
x264 [info]: frame P:63724 Avg QP:12.16 size: 68946
x264 [info]: frame B:147218 Avg QP:13.65 size: 29451
x264 [info]: consecutive B-frames: 5.0% 7.0% 25.2% 27.9% 34.8%


Общее
Уникальный идентификатор : 316291532406464446407846006521180525845 (0xEDF3888916231074ECFCE302975D1515)
Полное имя : G:\60 FPS\Spider-Man_No.Way.Home.(2021).3D.(Anaglyph_Dubois).mkv
Формат : Matroska
Версия формата : Version 4
Размер файла : 9,89 Гбайт
Продолжительность : 2 ч. 28 м.
Общий поток : 9555 Кбит/сек
Название фильма : Человек-паук: Нет пути домой / Spider-Man: No Way Home (2021) in 3D (Anaglyph_Dubois)
Дата кодирования : UTC 2022-08-18 14:28:01
Программа кодирования : mkvmerge v69.0.0 ('Day And Age') 64-bit
Библиотека кодирования : libebml v1.4.2 + libmatroska v1.6.4

Видео
Идентификатор : 1
Формат : AVC
Формат/Информация : Advanced Video Codec
Профиль формата : [email protected]
MultiView_Count : 2
MultiView_Layout : Anaglyph (cyan/red)
Настройки формата : CABAC / 4 Ref Frames
Параметр CABAC формата : Да
Параметр RefFrames формата : 4 кадра
Идентификатор кодека : V_MPEG4/ISO/AVC
Продолжительность : 2 ч. 28 м.
Битрейт : 8131 Кбит/сек
Ширина : 1920 пикселей
Высота : 1080 пикселей
Соотношение сторон : 16:9
Режим частоты кадров : Постоянный
Частота кадров : 23,976 (24000/1001) кадра/сек
Цветовое пространство : YUV
Субдискретизация насыщенности : 4:2:0
Битовая глубина : 8 бит
Тип развёртки : Прогрессивная
Бит/(Пиксели*Кадры) : 0.164
Размер потока : 8,41 Гбайт (85%)
Заголовок : slaventi-69 ( R.G. HD-Films ) 3Д (Anaglyph_Dubois)
Библиотека кодирования : x264 core 130 r2273 b3065e6
Настройки программы : cabac=1 / ref=4 / deblock=1:-3:-3 / analyse=0x3:0x133 / me=umh / subme=9 / psy=1 / psy_rd=1.00:0.00 / mixed_ref=1 / me_range=32 / chroma_me=1 / trellis=2 / 8x8dct=1 / cqm=0 / deadzone=21,11 / fast_pskip=0 / chroma_qp_offset=-2 / threads=8 / lookahead_threads=4 / sliced_threads=0 / nr=0 / decimate=1 / interlaced=0 / bluray_compat=0 / constrained_intra=0 / bframes=4 / b_pyramid=2 / b_adapt=2 / b_bias=0 / direct=1 / weightb=1 / open_gop=0 / weightp=2 / keyint=600 / keyint_min=23 / scenecut=40 / intra_refresh=0 / rc=crf / mbtree=0 / crf=19.0 / qcomp=0.60 / qpmin=0 / qpmax=69 / qpstep=4 / ip_ratio=1.40 / pb_ratio=1.30 / aq=1:1.00
Язык : English
Default : Да
Forced : Нет

Аудио #1
Идентификатор : 2
Формат : E-AC-3
Формат/Информация : Enhanced AC-3
Коммерческое название : Dolby Digital Plus
Идентификатор кодека : A_EAC3
Продолжительность : 2 ч. 28 м.
Вид битрейта : Постоянный
Битрейт : 384 Кбит/сек
Каналы : 6 каналов
Channel layout : L R C LFE Ls Rs
Частота : 48,0 КГц
Частота кадров : 31,250 кадров/сек (1536 SPF)
Метод сжатия : С потерями
Задержка видео : 4 мс.
Размер потока : 407 Мбайт (4%)
Заголовок : Дубляж
Язык : Russian
ServiceKind/String : Complete Main
Default : Да
Forced : Нет

Аудио #2
Идентификатор : 3
Формат : E-AC-3
Формат/Информация : Enhanced AC-3
Коммерческое название : Dolby Digital Plus
Идентификатор кодека : A_EAC3
Продолжительность : 2 ч. 28 м.
Вид битрейта : Постоянный
Битрейт : 384 Кбит/сек
Каналы : 6 каналов
Channel layout : L R C LFE Ls Rs
Частота : 48,0 КГц
Частота кадров : 31,250 кадров/сек (1536 SPF)
Метод сжатия : С потерями
Задержка видео : 4 мс.
Размер потока : 407 Мбайт (4%)
Заголовок : Ukrainian Дубляж LeDoyen
Язык : Ukrainian
ServiceKind/String : Complete Main
Default : Нет
Forced : Нет

Аудио #3
Идентификатор : 4
Формат : AC-3
Формат/Информация : Audio Coding 3
Коммерческое название : Dolby Digital
Идентификатор кодека : A_AC3
Продолжительность : 2 ч. 28 м.
Вид битрейта : Постоянный
Битрейт : 640 Кбит/сек
Каналы : 6 каналов
Channel layout : L R C LFE Ls Rs
Частота : 48,0 КГц
Частота кадров : 31,250 кадров/сек (1536 SPF)
Битовая глубина : 16 бит
Метод сжатия : С потерями
Размер потока : 678 Мбайт (7%)
Заголовок : DD 5.1
Язык : English
ServiceKind/String : Complete Main
Default : Нет
Forced : Нет

Текст #1
Идентификатор : 5
Формат : UTF-8
Идентификатор кодека : S_TEXT/UTF8
Идентификатор кодека/Информация : UTF-8 Plain Text
Продолжительность : 2 ч. 16 м.
Битрейт : 0 бит/сек
ElementCount : 9
Размер потока : 532 байт (0%)
Заголовок : Russian forced
Язык : Russian
Default : Да
Forced : Нет

Текст #2
Идентификатор : 6
Формат : UTF-8
Идентификатор кодека : S_TEXT/UTF8
Идентификатор кодека/Информация : UTF-8 Plain Text
Продолжительность : 2 ч. 28 м.
Битрейт : 83 бит/сек
ElementCount : 1941
Размер потока : 90,1 Кбайт (0%)
Заголовок : Russian full
Язык : Russian
Default : Нет
Forced : Нет

Текст #3
Идентификатор : 7
Формат : UTF-8
Идентификатор кодека : S_TEXT/UTF8
Идентификатор кодека/Информация : UTF-8 Plain Text
Продолжительность : 2 ч. 28 м.
Битрейт : 97 бит/сек
ElementCount : 2092
Размер потока : 106 Кбайт (0%)
Заголовок : Russian full FOCS
Язык : Russian
Default : Нет
Forced : Нет

Текст #4
Идентификатор : 8
Формат : UTF-8
Идентификатор кодека : S_TEXT/UTF8
Идентификатор кодека/Информация : UTF-8 Plain Text
Продолжительность : 2 ч. 28 м.
Битрейт : 88 бит/сек
ElementCount : 1984
Размер потока : 96,0 Кбайт (0%)
Заголовок : Ukrainian full
Язык : Ukrainian
Default : Нет
Forced : Нет

Текст #5
Идентификатор : 9
Формат : PGS
Режим смешивания : zlib
Идентификатор кодека : S_HDMV/PGS
Идентификатор кодека/Информация : Picture based subtitle format used on BDs/HD-DVDs
Продолжительность : 2 ч. 27 м.
Битрейт : 49,8 Кбит/сек
ElementCount : 4402
Размер потока : 52,7 Мбайт (1%)
Язык : English
Default : Нет
Forced : Нет

Меню
00:00:00.000 : en:Chapter 01
00:05:01.634 : en:Chapter 02
00:11:57.049 : en:Chapter 03
00:18:37.366 : en:Chapter 04
00:26:58.908 : en:Chapter 05
00:37:19.695 : en:Chapter 06
00:48:00.460 : en:Chapter 07
00:59:49.168 : en:Chapter 08
01:04:05.091 : en:Chapter 09
01:09:49.768 : en:Chapter 10
01:18:27.911 : en:Chapter 11
01:28:58.082 : en:Chapter 12
01:46:36.848 : en:Chapter 13
02:05:37.780 : en:Chapter 14
02:13:02.057 : en:Chapter 15
02:18:54.326 : en:Chapter 16

Просьба к переливающим на другие сайты, в оформлении указывайте пожалуйста авторство группы R.G. HD-Films



Скачать Человек-паук: Нет пути домой в 3Д через торрент https://i.postimg.cc/85XJL729/OTKJIIPV-o.png Скачать, смотреть онлайн Человек-паук: Нет пути домой в 3Д бесплантно в хорошем качестве Описание: Теперь, когда весь мир узнал, кто скрывается за маской Человека-паука, жизнь Питера Паркера и его близких меняется не в лучшую ... 5 10 1
Торрент: Зарегистрирован [2022-08-18 15:03] · скачан: 2 раз
Статус: √ проверено
Размер: 9.89 GB
Как cкачать? Как скачать Человек-паук: Нет пути домой в 3Д через торрент | UTorrent

% Раздел Тема Автор DL S | L
3D Фильмы [ 18.81 GB ] Человек-паук: Нет пути домой в 3Д / Spider-Man: No Way Home 3D | | 1080p serega768 Скачать
1 | 0

28-11-2019 20:33  


Отключить вcю реклaмy на сайте, в т.ч. и в плеере онлайн просмотра!

    Дорогой пользователь! Огромная просьба, поблагодарите релизера, оцените раздачу и оставьте свои комментарий, если Вы скачали Человек-паук: Нет пути домой в 3Д через торрент бесплатно!!
    Комментировать посты могут только пользователи прошедшие не сложную регистрацию
    Показать сообщения:    


    Человек-паук: Нет пути домой в 3Д через торрент
    Скачать бесплатно Человек-паук: Нет пути домой в 3Д
    Человек-паук: Нет пути домой в 3Д скачать торрент
    Человек-паук: Нет пути домой в 3Д смотреть онлайн
    Cкачать фильм Человек-паук: Нет пути домой в 3Д бесплатно
    Человек-паук: Нет пути домой в 3Д скачать торрент в хорошем качестве
    Человек-паук: Нет пути домой в 3Д смотреть онлайн бесплатно в хорошем качестве
    Вы не можете начинать темы
    Вы не можете отвечать на сообщения
    Вы не можете редактировать свои сообщения
    Вы не можете удалять свои сообщения
    Вы не можете голосовать в опросах
    Вы не можете прикреплять файлы к сообщениям
    Вы можете скачивать файлы
    Человек-паук: Нет пути домой в 3Д / Spider-Man: No Way Home 3D [2021 г., фантастика, боевик, приключения, фэнтези, 3D BDRip 1080p, Дубляж] Анаглиф от R.G. HD-Films смотреть онлайн, скачать торрент picoco.icu