Доктор Стрэндж

Лицензия

Добыча

Дубляж

Дом дракона

1 сезон

Тор

Дубляж

В эфире

Дубляж

Там, где раки поют

MVO

Властелин колец

1 сезон

Ultimate

pack

Рекомендуем

30

Пиратка

ВАЖНО

ВАЖНО

Ghostwire

Пиратка

jed

RePack

nioh2

RePack

RDR2

RePack

NEED FOR SPEED™ PAYBACK

RePack

скачать торрент

Кинопоиск HD

Острые козырьки 6 сезон

6 сезон

FAR CRY 6

RePack

скачать торрент

Лицензия

скачать торрент

MVO

1

1 сезон

скачать торрент

1 сезон

скачать торрент

Лицензия

  

Месть / Vengeance (Б.Дж. Новак) [2022, Триллер, комедия, детектив, UHD WEB-DL-HEVC 2160p] MVO [Jaskier]

Месть через торрент pb.wtf

Размер: 19.43 GB | Добавлен: 3 мес. 9 д. назад | Торрент скачан:97 раз
Смотреть онлайн | Скачать   

18-08-2022 19:09 Месть Скачать торрент  

Месть
Vengeance

Год выпуска: 2022
Страна: США
Студия: Blumhouse Productions, Divide / Conquer
Жанр: Триллер, комедия, детектив
Продолжительность: 01:48:03
Перевод: Профессиональный (многоголосый) | Jaskier
Субтитры: Aнглийские

Режиссер: Б.Дж. Новак

rating

В ролях: Эштон Кутчер, Изабелла Амара, Натаниэл Аугустсон, Грэйсон Берри, Эли Бикел, Дав Кэмерон, Мелисса Чэмберс, Шон Диллинхэм, Райан Хэммонд, Иван Эрнандес, Дэвид Хайт

Описание: Радиоведущий из Нью-Йорка пытается раскрыть убийство своей девушки и отправляется на Юг, чтобы лично изучить обстоятельства ее смерти и разобраться в том, что произошло.

Качество: UHD WEB-DL-HEVC 2160p
Формат: MKV

Видео: 3840x2160 at 23.976 fps, MPEG-H HEVC HDR ~ 24500 kbps avg
Аудио #01: 48 kHz, AC3, 5.1, 448 Kbps | Профессиональный многоголосый | Jaskier | RUS |
Аудио #02: 48 kHz, E-AC3+Atmos, 5.1, 768 Kbps | Оригинал | ENG |
скриншот  скриншот  скриншот  скриншот  

General
Unique ID : 256950818877959670006611470278739859354 (0xC14EED793CD0BF3FD555917E8D17979A)
Complete name : F:VideoVengeance.2022.MA.WEB-DL.2160p.HDR.seleZen.mkv
Format : Matroska
Format version : Version 4
File size : 19.4 GiB
Duration : 1 h 48 min
Overall bit rate : 25.7 Mb/s
Movie name : Vengeance 2022 from seleZen
Encoded date : UTC 2022-08-18 17:20:00
Writing application : mkvmerge v59.0.0 ('Shining Star') 64-bit
Writing library : libebml v1.4.2 + libmatroska v1.6.4

Video
ID : 1
Format : HEVC
Format/Info : High Efficiency Video Coding
Format profile : Main [email protected]@High
HDR format : SMPTE ST 2086, HDR10 compatible
Codec ID : V_MPEGH/ISO/HEVC
Duration : 1 h 48 min
Bit rate : 24.5 Mb/s
Width : 3 840 pixels
Height : 2 160 pixels
Display aspect ratio : 16:9
Frame rate mode : Constant
Frame rate : 23.976 (24000/1001) FPS
Color space : YUV
Chroma subsampling : 4:2:0 (Type 2)
Bit depth : 10 bits
Bits/(Pixel*Frame) : 0.123
Stream size : 18.5 GiB (95%)
Default : Yes
Forced : No
Color range : Limited
Color primaries : BT.2020
Transfer characteristics : PQ
Matrix coefficients : BT.2020 non-constant
Mastering display color pri : BT.2020
Mastering display luminance : min: 0.0050 cd/m2, max: 1000 cd/m2
Maximum Content Light Level : 1000 cd/m2
Maximum Frame-Average Light : 169 cd/m2

Audio #1
ID : 2
Format : AC-3
Format/Info : Audio Coding 3
Commercial name : Dolby Digital
Codec ID : A_AC3
Duration : 1 h 48 min
Bit rate mode : Constant
Bit rate : 448 kb/s
Channel(s) : 6 channels
Channel layout : L R C LFE Ls Rs
Sampling rate : 48.0 kHz
Frame rate : 31.250 FPS (1536 SPF)
Compression mode : Lossy
Stream size : 347 MiB (2%)
Title : MVO [Jaskier]
Language : Russian
Service kind : Complete Main
Default : Yes
Forced : Yes

Audio #2
ID : 3
Format : E-AC-3 JOC
Format/Info : Enhanced AC-3 with Joint Object Coding
Commercial name : Dolby Digital Plus with Dolby Atmos
Codec ID : A_EAC3
Duration : 1 h 48 min
Bit rate mode : Constant
Bit rate : 768 kb/s
Channel(s) : 6 channels
Channel layout : L R C LFE Ls Rs
Sampling rate : 48.0 kHz
Frame rate : 31.250 FPS (1536 SPF)
Compression mode : Lossy
Stream size : 594 MiB (3%)
Title : Original
Language : English
Service kind : Complete Main
Default : No
Forced : No
Complexity index : 16
Number of dynamic objects : 15
Bed channel count : 1 channel
Bed channel configuration : LFE

Text #1
ID : 4
Format : UTF-8
Codec ID : S_TEXT/UTF8
Codec ID/Info : UTF-8 Plain Text
Duration : 1 h 41 min
Bit rate : 79 b/s
Frame rate : 0.337 FPS
Count of elements : 2050
Stream size : 59.3 KiB (0%)
Title : Full
Language : English
Default : No
Forced : No

Text #2
ID : 5
Format : UTF-8
Codec ID : S_TEXT/UTF8
Codec ID/Info : UTF-8 Plain Text
Duration : 1 h 47 min
Bit rate : 88 b/s
Frame rate : 0.367 FPS
Count of elements : 2364
Stream size : 69.6 KiB (0%)
Title : SDH
Language : English
Default : No
Forced : No

Menu
00:00:00.000 : Chapter 1
00:05:38.000 : Chapter 2
00:11:44.000 : Chapter 3
00:14:48.000 : Chapter 4
00:22:38.000 : Chapter 5
00:32:06.000 : Chapter 6
00:37:08.000 : Chapter 7
00:41:26.000 : Chapter 8
00:48:14.000 : Chapter 9
00:51:00.000 : Chapter 10
00:55:34.000 : Chapter 11
01:01:46.000 : Chapter 12
01:03:39.000 : Chapter 13
01:08:22.000 : Chapter 14
01:12:03.000 : Chapter 15
01:20:43.000 : Chapter 16
01:26:54.000 : Chapter 17
01:30:49.000 : Chapter 18
01:40:23.000 : Chapter 19




Скачать Месть через торрент https://i120.fastpic.org/big/2022/0818/1b/c6aea9763de3e6c94e7e4da4a1020b1b.jpg Скачать, смотреть онлайн Месть бесплантно в хорошем качестве Описание: Радиоведущий из Нью-Йорка пытается раскрыть убийство своей девушки и отправляется на Юг, чтобы лично изучить обстоятельства ее ... 9 10 6
Торрент: Зарегистрирован [2022-08-18 19:09] · скачан: 97 раз
Статус: √ проверено
Размер: 19.43 GB
Как cкачать? Как скачать Месть через торрент | UTorrent

% Раздел Тема Автор DL S | L
Фильмы 2022 [DVDrip, WEB-DLRip, HDrip] (DUB, MVO) [ 1.46 GB ] Месть / Vengeance | Jaskier | BDRip bober100 Скачать
7 | 0
Фильмы 2022 [DVDrip, WEB-DLRip, HDrip] (DUB, MVO) [ 2.27 GB ] Месть / Vengeance | Jaskier | HDRip-AVC Lithuania Скачать
3 | 0
Фильмы (WEB-DL 720p, 1080p) [ 6.85 GB ] Месть / Vengeance | Jaskier | 1080p bober100 Скачать
6 | 1
Фильмы 2022 [DVDrip, WEB-DLRip, HDrip] (DUB, MVO) [ 1.82 GB ] Месть / Vengeance | Jaskier | DLRip-AVC bober100 Скачать
2 | 0

28-11-2019 20:33  


Отключить вcю реклaмy на сайте, в т.ч. и в плеере онлайн просмотра!

    Дорогой пользователь! Огромная просьба, поблагодарите релизера, оцените раздачу и оставьте свои комментарий, если Вы скачали Месть через торрент бесплатно!!
    Комментировать посты могут только пользователи прошедшие не сложную регистрацию
    Показать сообщения:    


    Месть через торрент
    Скачать бесплатно Месть
    Месть скачать торрент
    Месть смотреть онлайн
    Cкачать фильм Месть бесплатно
    Месть скачать торрент в хорошем качестве
    Месть смотреть онлайн бесплатно в хорошем качестве
    Вы не можете начинать темы
    Вы не можете отвечать на сообщения
    Вы не можете редактировать свои сообщения
    Вы не можете удалять свои сообщения
    Вы не можете голосовать в опросах
    Вы не можете прикреплять файлы к сообщениям
    Вы можете скачивать файлы
    Месть / Vengeance [2022, Триллер, комедия, детектив, UHD WEB-DL-HEVC 2160p] MVO [Jaskier] смотреть онлайн, скачать торрент picoco.icu