Доктор Стрэндж

Лицензия

Добыча

Дубляж

Дом дракона

1 сезон

Тор

Дубляж

В эфире

Дубляж

Там, где раки поют

MVO

Властелин колец

1 сезон

GLOBAL

pack

Рекомендуем

30

Пиратка

ВАЖНО

ВАЖНО

Ghostwire

Пиратка

jed

RePack

nioh2

RePack

RDR2

RePack

NEED FOR SPEED™ PAYBACK

RePack

скачать торрент

Кинопоиск HD

Острые козырьки 6 сезон

6 сезон

FAR CRY 6

RePack

скачать торрент

Лицензия

скачать торрент

MVO

1

1 сезон

скачать торрент

1 сезон

скачать торрент

Лицензия

  

Женщина-Халк: Адвокат / She-Hulk: Attorney at Law / Сезон: 1 / Серии: 1-9 из 9 (Кэт Койро, Ану Валиа) [2022, Фантастика, боевик, драма, комедия, приключения, WEB-DL 1080p] 2xMVO [HDRezka, LostFilm]

Женщина-Халк: Адвокат через торрент pb.wtf

Раздают: 3 [ 144 KB/s ]
Размер: 15.71 GB | Добавлен: 1 мес. 13 д. назад | Торрент скачан:78 раз
Смотреть онлайн | Скачать   

20-08-2022 02:20 Женщина-Халк: Адвокат Скачать торрент  

Женщина-Халк: Адвокат | She-Hulk: Attorney at Law
«You'll like her when she's angry»
Год выпуска: 2022
Страна: США
Выпущено: Marvel Studios, Disney+
Жанр: Фантастика, боевик, драма, комедия, приключения
Продолжительность: ~ 00:35:00 серия
Перевод:
Профессиональный (многоголосый) | HDRezka
Профессиональный (многоголосый) | LostFilm
Субтитры: Русские (Forced |HDRezka|, 2x Full |Где тексты Лебовски?, homo SUBiens|), Английские (Full, SDH)

Режиссер: Кэт Койро, Ану Валиа

rating

В ролях: Татьяна Маслани (Tatiana Maslany), Марк Руффало (Mark Ruffalo), Джинджер Гонзага (Ginger Gonzaga), Джамила Джамил (Jameela Jamil), Тим Рот (Tim Roth), Бенедикт Вонг (Benedict Wong), Чарли Кокс (Charlie Cox), Джош Сегарра (Josh Segarra), Гриффин Мэтьюз (Griffin Matthews), Стив Култер (Steve Coulter), Дрю Мэтьюз (Drew Matthews), Брэндон Хирш (Brandon Hirsch)

Описание: После переливания крови двоюродная сестра Брюса Бэннера юристка Дженнифер Уолтерс получает способность во время стресса перевоплощаться в сверхсильное существо. Дженнифер предстоит научиться управлять этим даром и применять его во благо при этом продолжать работать в недавно созданном Отделе по правам сверхлюдей.

Качество: WEB-DL 1080p
Формат: MKV

Видео: AVC, 1920x1080 (16:9), 24,000 кадра/сек, ~ 6200 Кбит/сек, 0.125 bit/pixel
Аудио Rus: E-AC3, 48 kHz, 3/2 (L R C LFE Ls Rs) ch, 768 Кбит/сек | LostFilm
Аудио Rus: AC3, 48 kHz, 3/2 (L,C,R,l,r) + LFE ch, 448 Кбит/сек | HDRezka
Аудио Eng: E-AC3 JOC, 48 kHz, 3/2 (L R C LFE Ls Rs) ch, 768 Кбит/сек

Общее
Уникальный идентификатор : 296690540259401492227557631890139069407 (0xDF3485028D7C71D9DBB6F84019573BDF)
Полное имя : D:\She.Hulk.Attorney.at.Law.S01E01.WEB-DL.1080p.RGzsRutracker.Wentworth_Miller.mkv
Формат : Matroska
Версия формата : Version 4
Размер файла : 2,03 Гбайт
Продолжительность : 35 м. 22 с.
Режим общего битрейта : Переменный
Общий поток : 8 206 Кбит/сек
Название фильма : She-Hulk: Attorney at Law 01x01 - Release by Wentworth_Miller
Дата кодирования : UTC 2022-10-16 16:57:43
Программа кодирования : mkvmerge v71.1.0 ('Fortitude') 64-bit
Библиотека кодирования : libebml v1.4.4 + libmatroska v1.7.1

Видео
Идентификатор : 1
Формат : AVC
Формат/Информация : Advanced Video Codec
Профиль формата : [email protected]
Настройки формата : CABAC / 4 Ref Frames
Параметр CABAC формата : Да
Параметр RefFrames формата : 4 кадра
Идентификатор кодека : V_MPEG4/ISO/AVC
Продолжительность : 35 м. 22 с.
Вид битрейта : Переменный
Битрейт : 6 219 Кбит/сек
Максимальный битрейт : 12,7 Мбит/сек
Ширина : 1 920 пикселей
Высота : 1 080 пикселей
Соотношение сторон : 16:9
Режим частоты кадров : Постоянный
Частота кадров : 24,000 кадра/сек
Цветовое пространство : YUV
Субдискретизация насыщенности : 4:2:0
Битовая глубина : 8 бит
Тип развёртки : Прогрессивная
Бит/(Пиксели*Кадры) : 0.125
Размер потока : 1,54 Гбайт (76%)
Заголовок : A Normal Amount of Rage
Язык : English
Default : Да
Forced : Нет
Цветовой диапазон : Limited
Основные цвета : BT.709
Характеристики трансфера : BT.709
Коэффициенты матрицы : BT.709

Аудио #1
Идентификатор : 2
Формат : E-AC-3
Формат/Информация : Enhanced AC-3
Коммерческое название : Dolby Digital Plus
Идентификатор кодека : A_EAC3
Продолжительность : 35 м. 22 с.
Вид битрейта : Постоянный
Битрейт : 768 Кбит/сек
Каналы : 6 каналов
Channel layout : L R C LFE Ls Rs
Частота : 48,0 КГц
Частота кадров : 31,250 кадров/сек (1536 SPF)
Метод сжатия : С потерями
Размер потока : 194 Мбайт (9%)
Заголовок : LostFilm
Язык : Russian
Service kind : Complete Main
Default : Да
Forced : Нет

Аудио #2
Идентификатор : 3
Формат : AC-3
Формат/Информация : Audio Coding 3
Коммерческое название : Dolby Digital
Идентификатор кодека : A_AC3
Продолжительность : 35 м. 22 с.
Вид битрейта : Постоянный
Битрейт : 448 Кбит/сек
Каналы : 6 каналов
Channel layout : L R C LFE Ls Rs
Частота : 48,0 КГц
Частота кадров : 31,250 кадров/сек (1536 SPF)
Метод сжатия : С потерями
Размер потока : 113 Мбайт (5%)
Заголовок : HDRezka
Язык : Russian
Service kind : Complete Main
Default : Нет
Forced : Нет

Аудио #3
Идентификатор : 4
Формат : E-AC-3 JOC
Формат/Информация : Enhanced AC-3 with Joint Object Coding
Коммерческое название : Dolby Digital Plus with Dolby Atmos
Идентификатор кодека : A_EAC3
Продолжительность : 35 м. 22 с.
Вид битрейта : Постоянный
Битрейт : 768 Кбит/сек
Каналы : 6 каналов
Channel layout : L R C LFE Ls Rs
Частота : 48,0 КГц
Частота кадров : 31,250 кадров/сек (1536 SPF)
Метод сжатия : С потерями
Размер потока : 194 Мбайт (9%)
Язык : English
Service kind : Complete Main
Default : Нет
Forced : Нет
Complexity index : 16
Number of dynamic objects : 15
Bed channel count : 1 канал
Bed channel configuration : LFE

Текст #1
Идентификатор : 5
Формат : UTF-8
Идентификатор кодека : S_TEXT/UTF8
Идентификатор кодека/Информация : UTF-8 Plain Text
Продолжительность : 28 м. 39 с.
Битрейт : 0 бит/сек
Частота кадров : 0,003 кадр/сек
Count of elements : 5
Размер потока : 180 байт (0%)
Заголовок : Forced
Язык : Russian
Default : Да
Forced : Нет

Текст #2
Идентификатор : 6
Формат : UTF-8
Идентификатор кодека : S_TEXT/UTF8
Идентификатор кодека/Информация : UTF-8 Plain Text
Продолжительность : 32 м. 21 с.
Битрейт : 129 бит/сек
Частота кадров : 0,263 кадр/сек
Count of elements : 510
Размер потока : 30,7 Кбайт (0%)
Заголовок : Где тексты, Лебовски
Язык : Russian
Default : Нет
Forced : Нет

Текст #3
Идентификатор : 7
Формат : UTF-8
Идентификатор кодека : S_TEXT/UTF8
Идентификатор кодека/Информация : UTF-8 Plain Text
Продолжительность : 32 м. 14 с.
Битрейт : 117 бит/сек
Частота кадров : 0,261 кадр/сек
Count of elements : 505
Размер потока : 27,6 Кбайт (0%)
Заголовок : homo SUBiens
Язык : Russian
Default : Нет
Forced : Нет

Текст #4
Идентификатор : 8
Формат : UTF-8
Идентификатор кодека : S_TEXT/UTF8
Идентификатор кодека/Информация : UTF-8 Plain Text
Продолжительность : 32 м. 4 с.
Битрейт : 75 бит/сек
Частота кадров : 0,267 кадр/сек
Count of elements : 514
Размер потока : 17,8 Кбайт (0%)
Язык : English
Default : Нет
Forced : Нет

Текст #5
Идентификатор : 9
Формат : UTF-8
Идентификатор кодека : S_TEXT/UTF8
Идентификатор кодека/Информация : UTF-8 Plain Text
Продолжительность : 32 м. 4 с.
Битрейт : 90 бит/сек
Частота кадров : 0,343 кадр/сек
Count of elements : 660
Размер потока : 21,2 Кбайт (0%)
Заголовок : SDH
Язык : English
Default : Нет
Forced : Нет

Меню
00:00:00.000 : en:Begin
00:32:16.417 : en:Credits

Когда раздача ведётся путём добавления новых серий, при каждом добавлении создётся новый торрент. Чтобы начать докачку новой серии, пользователям необходимо сделать следующее:
(1) остановить скачивание,
(2) удалить старый торрент у себя из клиента (старые серии удалять не надо),
(3) скачать новый торрент и запустить его у себя в клиенте вместо старого, при этом указать клиенту путь в старую папку, куда и должно происходить скачивание новых серий.
Ваш клиент при этом должен произвести хеширование (проверку) старой папки (если не производит сам - помогите ему сделать это), и будет докачивать только те серии, которых у вас ещё нет. Старые серии при этом не удаляются, а продолжают раздаваться!
Eсли вы уже удалили старые серии, то предотвратить повторную закачку старых серий можно, отжав галочку в соответсвующих местах при запуске нового торрента. По возможности, желательно не удалять старые серии как можно дольше, чтобы релизёр не столько продолжал раздавать старые серии, а смог сконцентрироваться на новых.




Скачать Женщина-Халк: Адвокат через торрент https://i6-imageban-ru.translate.goog/out/2022/08/19/e10bd3af4897627cf589af12814d6a98.png Скачать, смотреть онлайн Женщина-Халк: Адвокат бесплантно в хорошем качестве Описание: После переливания крови двоюродная сестра Брюса Бэннера юристка Дженнифер Уолтерс получает способность во время стресса ... 7.6 10 39
Торрент: Зарегистрирован [2022-10-17 04:05] · скачан: 78 раз
Статус: √ проверено
Размер: 15.71 GB
Как cкачать? Как скачать Женщина-Халк: Адвокат через торрент | UTorrent

% Раздел Тема Автор DL S | L
Зарубежные сериалы [ 12.27 GB ] Женщина-Халк: Адвокат / She-Hulk: Attorney at Law / Сезон: 1 / Серии: 1-9 из 9 | DUB | 1080p bober100 Скачать
1 | 2
Зарубежные сериалы [ 4.83 GB ] Женщина-Халк: Адвокат / She-Hulk: Attorney at Law / Сезон: 1 / Серии: 1-9 из 9 | LostFilm | DLRip bober100 Скачать
2 | 1



Последний раз редактировалось: bober100 (2022-10-17 04:05), всего редактировалось 10 раз(а)

28-11-2019 20:33  


Отключить вcю реклaмy на сайте, в т.ч. и в плеере онлайн просмотра!

20-08-2022 07:09 Женщина-Халк: Адвокат Скачать торрент  

Ну вот. Теперь бабы и Халка подменили



20-08-2022 09:57 Женщина-Халк: Адвокат Скачать торрент  

равноправие,ешкин кот
а почему не негр? черно зеленый плохо смотрится??



20-08-2022 13:09 Женщина-Халк: Адвокат Скачать торрент  

urs писал(а):

равноправие,ешкин кот
а почему не негр? черно зеленый плохо смотрится??

На черном плохо видно зеленый, проваливается цвет )))



22-08-2022 09:58 Женщина-Халк: Адвокат Скачать торрент  

Короче, вроде бы херня



22-08-2022 18:58 Женщина-Халк: Адвокат Скачать торрент  

начало неплохое..стоит глянуть на сестренку халка



23-08-2022 04:47 Женщина-Халк: Адвокат Скачать торрент  

aleksze писал(а):

стоит глянуть на сестренку халка

ну насчет я не уверен. чисто технически, это как гхм.. презик на барабан натягивать. в смысле габаритов. ну вы меня поняли. или я один такой дотошный?)



17-09-2022 11:02 Женщина-Халк: Адвокат Скачать торрент  

tamburetko писал(а):

aleksze писал(а):

стоит глянуть на сестренку халка

ну насчет я не уверен. чисто технически, это как гхм.. презик на барабан натягивать. в смысле габаритов. ну вы меня поняли. или я один такой дотошный?)

ну у нее там вроде вобще 1й , так что при росте в халка может хотяб до 3го апнуться, но опять же- зеленые перекачаные груши- то еще зрелище....



16-10-2022 05:06 Женщина-Халк: Адвокат Скачать торрент  

На удивление забавный сериал, спасибо.



    Дорогой пользователь! Огромная просьба, поблагодарите релизера, оцените раздачу и оставьте свои комментарий, если Вы скачали Женщина-Халк: Адвокат через торрент бесплатно!!
    Комментировать посты могут только пользователи прошедшие не сложную регистрацию
    Показать сообщения:    


    Женщина-Халк: Адвокат через торрент
    Скачать бесплатно Женщина-Халк: Адвокат
    Женщина-Халк: Адвокат скачать торрент
    Женщина-Халк: Адвокат смотреть онлайн
    Cкачать фильм Женщина-Халк: Адвокат бесплатно
    Женщина-Халк: Адвокат скачать торрент в хорошем качестве
    Женщина-Халк: Адвокат смотреть онлайн бесплатно в хорошем качестве
    Вы не можете начинать темы
    Вы не можете отвечать на сообщения
    Вы не можете редактировать свои сообщения
    Вы не можете удалять свои сообщения
    Вы не можете голосовать в опросах
    Вы не можете прикреплять файлы к сообщениям
    Вы можете скачивать файлы
    Женщина-Халк: Адвокат / She-Hulk: Attorney at Law / Сезон: 1 / Серии: 1-9 из 9 [2022, Фантастика, боевик, драма, комедия, приключения, WEB-DL 1080p] 2xMVO [HDRezka, LostFilm] смотреть онлайн, скачать торрент picoco.icu