Доктор Стрэндж

Лицензия

Добыча

Дубляж

Дом дракона

1 сезон

Тор

Дубляж

В эфире

Дубляж

Там, где раки поют

MVO

Властелин колец

1 сезон

Deluxe

pack

Рекомендуем

30

Пиратка

ВАЖНО

ВАЖНО

Ghostwire

Пиратка

jed

RePack

nioh2

RePack

RDR2

RePack

NEED FOR SPEED™ PAYBACK

RePack

скачать торрент

Кинопоиск HD

Острые козырьки 6 сезон

6 сезон

FAR CRY 6

RePack

скачать торрент

Лицензия

скачать торрент

MVO

1

1 сезон

скачать торрент

1 сезон

скачать торрент

Лицензия

  

Заговор сестёр Гарви / Плохие сестры / Bad Sisters / Сезон: 1 / Серии 1-10 из 10 (Ребекка Гатуард, Жозефин Борнебуш, Дирбла Уолш) [2022, Триллер, драма, комедия, WEB-DL 720p] [Дубляж] + [MVO] (HDRezka) + [Ukr] (DniproFilm)

Заговор сестёр Гарви через торрент pb.wtf

Раздают: 2 [ 36 KB/s ]
Размер: 18.61 GB | Добавлен: 1 мес. 18 д. назад | Торрент скачан:43 раза
Смотреть онлайн | Скачать   

20-08-2022 17:49 Заговор сестёр Гарви Скачать торрент  

Заговор сестёр Гарви / Плохие сестры / Bad Sisters
Информация о сериале

Год выпуска: 2022
Страна: США, Бельгия, Великобритания
Жанр: Триллер, драма, комедия
Продолжительность: 1 x ~ 00:50:00
Перевод #1: Профессиональный (дублированный) - Iyuno
Перевод #2: Профессиональный (многоголосый закадровый) - HDRezka
Перевод #3: Профессиональный (многоголосый) - Украинский
Субтитры: английские, русские (forced, full), украинские (forced, full)

Режиссер: Ребекка Гатуард, Жозефин Борнебуш, Дирбла Уолш

В ролях: Шэрон Хорган, Энн-Мэри Дафф, Ева Бертистл, Сара Грин, Ив Хьюсон, Дэрил МакКормак, Клас Банг, Брин Глисон, Ассаад Буаб, Пол Тайлак, Сэйз Куинн

Описание: Адаптация бельгийского хита под названием «Клан» от создательницы обласканного критиками драмеди «Катастрофа». Cёстры Гарви всегда заботились друг о друге. После гибели их зятя страховая компания начинает расследование, и подозрение падает на сестёр, ведь у каждой из них было немало причин совершить это убийство.

rating

Качество: WEB-DL 720p
Формат: MKV
Видео: AVC, 1356х678, ~3 900 kbps, 23,976 fps
Аудио #1: 48 kHz, AC3, 6 ch, 448 kbps avg | Дубляж (Iyuno)
Аудио #2: 48 kHz, AC3, 6 ch, 448 kbps avg | HDRezka
Аудио #3: 48 kHz, AC3, 6 ch, 384 kbps avg | DniproFilm
Аудио #4: 48 kHz, E-AC3, 6 ch, 768 kbps|English|
скриншот  скриншот  скриншот  скриншот  
General
Unique ID : 180215201800215030674184852335940845851 (0x87942F73A0955D65AD710FE09EAFC11B)
Complete name : G:\Bad Sisters.S01.WEB-DL720p.xz\Bad Sisters.S01E01.WEB-DL720p.[Дубляж], [HDR], [Ukr].xz.mkv
Format : Matroska
Format version : Version 4
File size : 2.04 GiB
Duration : 49 min 23 s
Overall bit rate : 5 911 kb/s
Movie name : Bad Sisters.S01E01.WEB-DL720p.[Дубляж], [HDR], [Ukr].xz
Encoded date : UTC 2022-08-20 17:27:46
Writing application : mkvmerge v6.1.0 ('Old Devil') built on Mar 2 2013 14:32:37
Writing library : libebml v1.3.0 + libmatroska v1.4.0

Video
ID : 1
Format : AVC
Format/Info : Advanced Video Codec
Format profile : [email protected]
Format settings : CABAC / 5 Ref Frames
Format settings, CABAC : Yes
Format settings, Reference : 5 frames
Codec ID : V_MPEG4/ISO/AVC
Duration : 49 min 23 s
Bit rate : 3 745 kb/s
Width : 1 356 pixels
Height : 678 pixels
Display aspect ratio : 2.000
Frame rate mode : Constant
Frame rate : 23.976 (24000/1001) FPS
Color space : YUV
Chroma subsampling : 4:2:0
Bit depth : 8 bits
Scan type : Progressive
Bits/(Pixel*Frame) : 0.170
Stream size : 1.29 GiB (63%)
Title : Bad Sisters.S01E01.WEB-DL720p.[Дубляж], [HDR], [Ukr].xz
Default : Yes
Forced : No
Color range : Limited
Color primaries : BT.709
Transfer characteristics : BT.709
Matrix coefficients : BT.709
Statistics Tags Issue : mkvmerge v69.0.0 ('Day And Age') 64-bit / mkvmerge v6.1.0 ('Old Devil') built on Mar 2 2013 14:32:37 2022-08-20 17:27:46
FromStats_BitRate : 3859122
FromStats_Duration : 00:49:23.211000000
FromStats_FrameCount : 71046
FromStats_StreamSize : 1429424205
Duration_Source : General_Duration

Audio #1
ID : 2
Format : AC-3
Format/Info : Audio Coding 3
Commercial name : Dolby Digital
Codec ID : A_AC3
Duration : 49 min 23 s
Bit rate mode : Constant
Bit rate : 448 kb/s
Channel(s) : 6 channels
Channel layout : L R C LFE Ls Rs
Sampling rate : 48.0 kHz
Frame rate : 31.250 FPS (1536 SPF)
Compression mode : Lossy
Stream size : 158 MiB (8%)
Title : Дубляж
Language : Russian
Service kind : Complete Main
Default : No
Forced : No
Duration_Source : General_Duration

Audio #2
ID : 3
Format : AC-3
Format/Info : Audio Coding 3
Commercial name : Dolby Digital
Codec ID : A_AC3
Duration : 49 min 23 s
Bit rate mode : Constant
Bit rate : 448 kb/s
Channel(s) : 6 channels
Channel layout : L R C LFE Ls Rs
Sampling rate : 48.0 kHz
Frame rate : 31.250 FPS (1536 SPF)
Compression mode : Lossy
Stream size : 158 MiB (8%)
Title : HDR
Language : Russian
Service kind : Complete Main
Default : No
Forced : No
Duration_Source : General_Duration

Audio #3
ID : 4
Format : AC-3
Format/Info : Audio Coding 3
Commercial name : Dolby Digital
Codec ID : A_AC3
Duration : 49 min 23 s
Bit rate mode : Constant
Bit rate : 384 kb/s
Channel(s) : 6 channels
Channel layout : L R C LFE Ls Rs
Sampling rate : 48.0 kHz
Frame rate : 31.250 FPS (1536 SPF)
Compression mode : Lossy
Stream size : 136 MiB (6%)
Title : DniproFilm
Language : Ukrainian
Service kind : Complete Main
Default : No
Forced : No
Duration_Source : General_Duration

Audio #4
ID : 5
Format : E-AC-3 JOC
Format/Info : Enhanced AC-3 with Joint Object Coding
Commercial name : Dolby Digital Plus with Dolby Atmos
Codec ID : A_EAC3
Duration : 49 min 23 s
Bit rate mode : Constant
Bit rate : 768 kb/s
Channel(s) : 6 channels
Channel layout : L R C LFE Ls Rs
Sampling rate : 48.0 kHz
Frame rate : 31.250 FPS (1536 SPF)
Compression mode : Lossy
Stream size : 271 MiB (13%)
Language : English
Service kind : Complete Main
Default : No
Forced : No
Statistics Tags Issue : mkvmerge v69.0.0 ('Day And Age') 64-bit / mkvmerge v6.1.0 ('Old Devil') built on Mar 2 2013 14:32:37 2022-08-20 17:27:46
FromStats_BitRate : 768000
FromStats_Duration : 00:49:23.232000000
FromStats_FrameCount : 92601
FromStats_StreamSize : 284470272
Complexity index : 16
Number of dynamic objects : 15
Bed channel count : 1 channel
Bed channel configuration : LFE
Duration_Source : General_Duration

Text #1
ID : 6
Format : UTF-8
Codec ID : S_TEXT/UTF8
Codec ID/Info : UTF-8 Plain Text
Language : English
Default : No
Forced : No
Statistics Tags Issue : mkvmerge v69.0.0 ('Day And Age') 64-bit / mkvmerge v6.1.0 ('Old Devil') built on Mar 2 2013 14:32:37 2022-08-20 17:27:46
FromStats_BitRate : 71
FromStats_Duration : 00:47:26.680000000
FromStats_FrameCount : 736
FromStats_StreamSize : 25289

Text #2
ID : 7
Format : UTF-8
Codec ID : S_TEXT/UTF8
Codec ID/Info : UTF-8 Plain Text
Title : SDH
Language : English
Default : No
Forced : No
Statistics Tags Issue : mkvmerge v69.0.0 ('Day And Age') 64-bit / mkvmerge v6.1.0 ('Old Devil') built on Mar 2 2013 14:32:37 2022-08-20 17:27:46
FromStats_BitRate : 82
FromStats_Duration : 00:48:00.506000000
FromStats_FrameCount : 824
FromStats_StreamSize : 29555

Text #3
ID : 8
Format : UTF-8
Codec ID : S_TEXT/UTF8
Codec ID/Info : UTF-8 Plain Text
Language : Ukrainian
Default : No
Forced : No
Statistics Tags Issue : mkvmerge v69.0.0 ('Day And Age') 64-bit / mkvmerge v6.1.0 ('Old Devil') built on Mar 2 2013 14:32:37 2022-08-20 17:27:46
FromStats_BitRate : 98
FromStats_Duration : 00:48:42.255000000
FromStats_FrameCount : 755
FromStats_StreamSize : 35970

Text #4
ID : 9
Format : UTF-8
Codec ID : S_TEXT/UTF8
Codec ID/Info : UTF-8 Plain Text
Title : forced
Language : Ukrainian
Default : No
Forced : No

Text #5
ID : 10
Format : UTF-8
Codec ID : S_TEXT/UTF8
Codec ID/Info : UTF-8 Plain Text
Title : forced
Language : Russian
Default : No
Forced : No

Text #6
ID : 11
Format : UTF-8
Codec ID : S_TEXT/UTF8
Codec ID/Info : UTF-8 Plain Text
Title : full
Language : Russian
Default : No
Forced : No

Text #7
ID : 12
Format : UTF-8
Codec ID : S_TEXT/UTF8
Codec ID/Info : UTF-8 Plain Text
Title : SDH
Language : Russian
Default : No
Forced : No
Внимание! Раздача ведётся путём добавления новых серий; при каждом добавлении создаётся новый торрент. Чтобы начать докачку новой серии, пользователям необходимо сделать следующее:
(1) остановить скачивание,
(2) удалить старый торрент у себя из клиента (старые серии удалять не надо),
(3) скачать новый торрент и запустить его у себя в клиенте вместо старого, при этом указать клиенту путь в старую папку куда и должно происходить скачивание новых серий.

Ваш клиент при этом должен произвести хеширование (проверку) старой папки (если не производит сам - помогите ему сделать это), и будет докачивать только те серии которых у вас ещё нет. Старые серии при этом не удаляются, а продолжают раздаваться!

Eсли вы уже удалили старые серии, то предотвратить повторную закачку старых серий можно, отжав галочку в соответсвующих местах при запуске нового торрента. По возможности, желательно не удалять старые серии как можно дольше чтобы релизёр не столько продолжал раздавать старые серии, а смог сконцентрироваться на новых.



Скачать Заговор сестёр Гарви через торрент https://i120.fastpic.org/big/2022/0820/93/3cc45c740681cfceffb678a906467a93.jpg Скачать, смотреть онлайн Заговор сестёр Гарви бесплантно в хорошем качестве Описание: Адаптация бельгийского хита под названием «Клан» от создательницы обласканного критиками драмеди «Катастрофа». Cёстры Гарви ... 7.2 10 16
Торрент: Зарегистрирован [2022-10-15 14:00] · скачан: 43 раз
Статус: √ проверено
Размер: 18.61 GB
Как cкачать? Как скачать Заговор сестёр Гарви через торрент | UTorrent

% Раздел Тема Автор DL S | L
Зарубежные сериалы [ 42.51 GB ] Заговор сестёр Гарви / Bad Sisters / Сезон: 1 / Серии: 1-10 из 10 | DUB | 1080p bober100 Скачать
1 | 2

28-11-2019 20:33  


Отключить вcю реклaмy на сайте, в т.ч. и в плеере онлайн просмотра!

    Дорогой пользователь! Огромная просьба, поблагодарите релизера, оцените раздачу и оставьте свои комментарий, если Вы скачали Заговор сестёр Гарви через торрент бесплатно!!
    Комментировать посты могут только пользователи прошедшие не сложную регистрацию
    Показать сообщения:    


    Заговор сестёр Гарви через торрент
    Скачать бесплатно Заговор сестёр Гарви
    Заговор сестёр Гарви скачать торрент
    Заговор сестёр Гарви смотреть онлайн
    Cкачать фильм Заговор сестёр Гарви бесплатно
    Заговор сестёр Гарви скачать торрент в хорошем качестве
    Заговор сестёр Гарви смотреть онлайн бесплатно в хорошем качестве
    Вы не можете начинать темы
    Вы не можете отвечать на сообщения
    Вы не можете редактировать свои сообщения
    Вы не можете удалять свои сообщения
    Вы не можете голосовать в опросах
    Вы не можете прикреплять файлы к сообщениям
    Вы можете скачивать файлы
    Заговор сестёр Гарви / Плохие сестры / Bad Sisters / Сезон: 1 / Серии 1-10 из 10 [2022, Триллер, драма, комедия, WEB-DL 720p] [Дубляж] + [MVO] + [Ukr] смотреть онлайн, скачать торрент picoco.icu