Доктор Стрэндж

Лицензия

Добыча

Дубляж

Дом дракона

1 сезон

Тор

Дубляж

В эфире

Дубляж

Там, где раки поют

MVO

Властелин колец

1 сезон

Deluxe

pack

Рекомендуем

30

Пиратка

ВАЖНО

ВАЖНО

Ghostwire

Пиратка

jed

RePack

nioh2

RePack

RDR2

RePack

NEED FOR SPEED™ PAYBACK

RePack

скачать торрент

Кинопоиск HD

Острые козырьки 6 сезон

6 сезон

FAR CRY 6

RePack

скачать торрент

Лицензия

скачать торрент

MVO

1

1 сезон

скачать торрент

1 сезон

скачать торрент

Лицензия

  

Дом дракона / House of the Dragon / Сезон: 1 / Серии: 1-10 из 10 (Мигель Сапочник, Грег Яйтанс, Клер Килнер) [2022, Фэнтези, боевик, драма, мелодрама, UHD WEB-DL 2160p] Дубляж [Кравец / Amedia] +5xMVO (rus, ukr)

Дом дракона через торрент pb.wtf

Раздают: 9 [ 1 MB/s ] Качают: 4 [ 0 KB/s ]
Размер: 92.6 GB | Добавлен: 1 мес. 6 д. назад | Торрент скачан:72 раза
Смотреть онлайн | Скачать   

22-08-2022 07:58 Дом дракона Скачать торрент  

Дом дракона | House of the Dragon
«Fire Will Reign»
Год выпуска: 2022
Страна: США
Выпущено: 1:26 Pictures, Home Box Office (HBO)
Жанр: Фэнтези, боевик, драма, мелодрама
Продолжительность: ~ 01:00:00 серия
Перевод:
Дублированный | "Кравец" по заказу Amedia
Профессиональный (многоголосый) | Iyuno
Профессиональный (многоголосый) | HDRezka
Профессиональный (многоголосый) | LostFilm
Профессиональный (многоголосый) | Jaskier
Профессиональный (многоголосый) | RuDub
Субтитры: Русские (Forced, Full), английские (Full)

Режиссер: Мигель Сапочник, Грег Яйтанс, Клер Килнер

rating

В ролях: Пэдди Консидайн, Эмма Д'Арси, Мэтт Смит, Милли Олкок, Ив Бест, Оливия Кук, Рис Иванс, Соноя Мидзуно, Дэвид Хорович, Грэм МакТавиш, Билл Патерсон, Стив Тюссен, Уил Джонсон, Энтони Флэнеган, Эмили Кэри, Эван Митчелл, Гарри Коллетт, Фрэнки Уилсон, Райан Корр, Фабьен Фрэнкел, Джефферсон Холл, Майкл Картер, Дэвид Хаунслоу, Мэтью Нидэм, Гэвин Спокс, Алексис Рабен, Джон МакМиллан, Тео Нейт, Саванна Штейн, Том Глинн-Карни, Бетани Антония, Нина Баркер-Фрэнсис, Хаки Али, Биджан Данешманд, Мартин Портлок, Ханна Флинн, Мария Салливан

Описание: Приквел самого масштабного сериала 2010-х «Игра престолов». История разворачивается за 200 лет до событий саги «Песнь льда и пламени». Таргариены правят Семью Королевствами и находятся на грани гражданской войны. Король Визерис к ужасу подданных объявляет своей наследницей дочь Рейниру. Она должна стать первой женщиной, которая взойдёт на Железный трон, но слишком многим это не по нраву. Судьба королевства висит на волоске.

Качество: UHD WEB-DL 2160p
Формат: MKV

Видео: HEVC HDR, 3840x2160 (1.778), 10 Бит, ~17,4 Mбит/с, 23,976 fps, ~0.087 bit/pixel
Аудио №1: AC3, 48 kHz, 6 ch, 384 kbps | "Кравец"
Аудио №2: AC3, 48 kHz, 6 ch, 384 kbps | Iyuno
Аудио №3: AC3, 48 kHz, 6 ch, 448 kbps | HDRezka
Аудио №4: AC3, 48 kHz, 2 ch, 384 kbps | LostFilm
Аудио №5: AC3, 48 kHz, 6 ch, 384 kbps | Jaskier
Аудио №6: AC3, 48 kHz, 2 ch, 384 kbps | RuDub
Аудио №7: AC3, 48 kHz, 6 ch, 384 kbps
Аудио №8: E-AC3 ATMOS, 48 kHz, 6 ch, 768 kbps

Общее
Уникальный идентификатор : 211740862174004129101087458354314001241 (0x9F4BCE834F4EF153B86A1776DA9ABB59)
Полное имя : E:\Передел\House.of.the.Dragon.S01.2160p.HMAX.WEB-DL.x265.10bit.HDR.Master5\House.of.the.Dragon.S01E01.2160p.HDR.Master5.mkv
Формат : Matroska
Версия формата : Version 4
Размер файла : 9,42 Гбайт
Продолжительность : 1 ч. 5 м.
Общий поток : 20,6 Мбит/сек
Название фильма : House of the Dragon S01E01
Дата кодирования : UTC 2022-09-04 17:37:06
Программа кодирования : mkvmerge v7.9.0 ('Birds') 64bit
Библиотека кодирования : libebml v1.3.1 + libmatroska v1.4.2
Обложка : Yes
Attachments : Cover_House.of.the.Dragon.jpg / cover-release.jpg / Arial.ttf / InformaPro.ttf / Times New Roman Italic.ttf / Times New Roman.ttf / cover_small.jpg / cover.jpg / AmorSerifTextPro-Bold.ttf / AmorSerifTextPro-BoldItalic.ttf / AmorSerifTextPro-Italic.ttf / AmorSerifTextPro.ttf / Modernist One.ttf / TrajanPro3-Bold.otf / TrajanPro3-Regular.otf

Видео
Идентификатор : 1
Формат : HEVC
Формат/Информация : High Efficiency Video Coding
Профиль формата : Main [email protected]@Main
HDR format : SMPTE ST 2086, HDR10 compatible
Идентификатор кодека : V_MPEGH/ISO/HEVC
Продолжительность : 1 ч. 5 м.
Битрейт : 17,4 Мбит/сек
Ширина : 3 840 пикселей
Высота : 2 160 пикселей
Соотношение сторон : 16:9
Режим частоты кадров : Постоянный
Частота кадров : 23,976 (24000/1001) кадра/сек
Цветовое пространство : YUV
Субдискретизация насыщенности : 4:2:0
Битовая глубина : 10 бит
Бит/(Пиксели*Кадры) : 0.087
Размер потока : 7,95 Гбайт (84%)
Библиотека кодирования : x265 3.4hy:[Linux][GCC 7.5.0][64 bit] 10bit
Настройки программы : cpuid=1111039 / frame-threads=1 / wpp / no-pmode / no-pme / no-psnr / no-ssim / log-level=2 / input-csp=1 / input-res=3840x2160 / interlace=0 / total-frames=0 / level-idc=0 / high-tier=1 / uhd-bd=0 / ref=4 / no-allow-non-conformance / repeat-headers / annexb / no-aud / no-hrd / info / hash=0 / no-temporal-layers / no-open-gop / min-keyint=96 / keyint=96 / gop-lookahead=0 / bframes=3 / b-adapt=2 / b-pyramid / bframe-bias=0 / rc-lookahead=25 / lookahead-slices=4 / scenecut=40 / hist-scenecut=0 / radl=0 / no-splice / no-intra-refresh / ctu=64 / min-cu-size=8 / rect / no-amp / max-tu-size=32 / tu-inter-depth=1 / tu-intra-depth=1 / limit-tu=0 / rdoq-level=2 / dynamic-rd=0.00 / no-ssim-rd / signhide / no-tskip / nr-intra=0 / nr-inter=0 / no-constrained-intra / strong-intra-smoothing / max-merge=3 / limit-refs=3 / limit-modes / me=3 / subme=3 / merange=57 / temporal-mvp / no-frame-dup / no-hme / weightp / no-weightb / no-analyze-src-pics / deblock=0:0 / sao / no-sao-non-deblock / rd=4 / selective-sao=4 / no-early-skip / rskip / no-fast-intra / no-tskip-fast / no-cu-lossless / no-b-intra / no-splitrd-skip / rdpenalty=0 / psy-rd=2.00 / psy-rdoq=1.00 / no-rd-refine / no-lossless / cbqpoffs=0 / crqpoffs=0 / rc=abr / bitrate=18000 / qcomp=0.60 / qpstep=4 / stats-write=0 / stats-read=2 / cplxblur=20.0 / qblur=0.5 / vbv-maxrate=24500 / vbv-bufsize=24500 / vbv-init=0.6 / vbv-end=0.6 / vbv-end-fr-adj=0.0 / ipratio=1.40 / pbratio=1.30 / aq-mode=2 / aq-strength=1.00 / cutree / zone-count=0 / no-strict-cbr / qg-size=32 / no-rc-grain / qpmax=69 / qpmin=0 / no-const-vbv / sar=0 / overscan=0 / videoformat=5 / range=0 / colorprim=9 / transfer=16 / colormatrix=9 / chromaloc=0 / display-window=0 / master-display=G(8500,39850)B(6550,2300)R(35400,14600)WP(15635,16450)L(10000000,1) / cll=826,166 / min-luma=0 / max-luma=1023 / log2-max-poc-lsb=8 / vui-timing-info / vui-hrd-info / no-concatenation / slices=1 / no-opt-qp-pps / no-opt-ref-list-length-pps / no-multi-pass-opt-rps / scenecut-bias=0.05 / hist-threshold=0.01 / no-opt-cu-delta-qp / no-aq-motion / hdr10 / no-hdr10-opt / no-dhdr10-opt / no-idr-recovery-sei / analysis-reuse-level=0 / analysis-save-reuse-level=0 / analysis-load-reuse-level=0 / scale-factor=0 / refine-intra=0 / refine-inter=0 / refine-mv=1 / refine-ctu-distortion=0 / no-limit-sao / ctu-info=0 / no-lowpass-dct / refine-analysis-type=0 / copy-pic=1 / max-ausize-factor=1.0 / no-dynamic-refine / no-single-sei / no-hevc-aq / no-svt / no-field / qp-adaptation-range=1.00 / no-scenecut-aware-qpconformance-window-offsets / right=0 / bottom=0 / decoder-max-rate=0
Язык : English
Default : Да
Forced : Нет
Цветовой диапазон : Limited
Основные цвета : BT.2020
Характеристики трансфера : PQ
Коэффициенты матрицы : BT.2020 non-constant
Mastering display color primaries : BT.2020
Mastering display luminance : min: 0.0001 cd/m2, max: 1000 cd/m2
Maximum Content Light Level : 826 cd/m2
Maximum Frame-Average Light Level : 166 cd/m2

Аудио #1
Идентификатор : 2
Формат : AC-3
Формат/Информация : Audio Coding 3
Коммерческое название : Dolby Digital
Идентификатор кодека : A_AC3
Продолжительность : 1 ч. 5 м.
Вид битрейта : Постоянный
Битрейт : 384 Кбит/сек
Каналы : 6 каналов
Channel layout : L R C LFE Ls Rs
Частота : 48,0 КГц
Частота кадров : 31,250 кадров/сек (1536 SPF)
Метод сжатия : С потерями
Размер потока : 180 Мбайт (2%)
Заголовок : Дубляж
Язык : Russian
Service kind : Complete Main
Default : Да
Forced : Нет

Аудио #2
Идентификатор : 3
Формат : AC-3
Формат/Информация : Audio Coding 3
Коммерческое название : Dolby Digital
Идентификатор кодека : A_AC3
Продолжительность : 1 ч. 5 м.
Вид битрейта : Постоянный
Битрейт : 384 Кбит/сек
Каналы : 6 каналов
Channel layout : L R C LFE Ls Rs
Частота : 48,0 КГц
Частота кадров : 31,250 кадров/сек (1536 SPF)
Метод сжатия : С потерями
Размер потока : 180 Мбайт (2%)
Заголовок : MVO Iyuno
Язык : Russian
Service kind : Complete Main
Default : Нет
Forced : Нет

Аудио #3
Идентификатор : 4
Формат : AC-3
Формат/Информация : Audio Coding 3
Коммерческое название : Dolby Digital
Идентификатор кодека : A_AC3
Продолжительность : 1 ч. 5 м.
Вид битрейта : Постоянный
Битрейт : 384 Кбит/сек
Каналы : 2 канала
Channel layout : L R
Частота : 48,0 КГц
Частота кадров : 31,250 кадров/сек (1536 SPF)
Метод сжатия : С потерями
Размер потока : 180 Мбайт (2%)
Заголовок : MVO LostFilm
Язык : Russian
Service kind : Complete Main
Default : Нет
Forced : Нет

Аудио #4
Идентификатор : 5
Формат : AC-3
Формат/Информация : Audio Coding 3
Коммерческое название : Dolby Digital
Идентификатор кодека : A_AC3
Продолжительность : 1 ч. 5 м.
Вид битрейта : Постоянный
Битрейт : 448 Кбит/сек
Каналы : 6 каналов
Channel layout : L R C LFE Ls Rs
Частота : 48,0 КГц
Частота кадров : 31,250 кадров/сек (1536 SPF)
Метод сжатия : С потерями
Размер потока : 210 Мбайт (2%)
Заголовок : Jaskier
Язык : Russian
Service kind : Complete Main
Default : Нет
Forced : Нет

Аудио #5
Идентификатор : 6
Формат : AC-3
Формат/Информация : Audio Coding 3
Коммерческое название : Dolby Digital
Идентификатор кодека : A_AC3
Продолжительность : 1 ч. 5 м.
Вид битрейта : Постоянный
Битрейт : 448 Кбит/сек
Каналы : 6 каналов
Channel layout : L R C LFE Ls Rs
Частота : 48,0 КГц
Частота кадров : 31,250 кадров/сек (1536 SPF)
Метод сжатия : С потерями
Размер потока : 210 Мбайт (2%)
Заголовок : HDr
Язык : Russian
Service kind : Complete Main
Default : Нет
Forced : Нет

Аудио #6
Идентификатор : 7
Формат : AC-3
Формат/Информация : Audio Coding 3
Коммерческое название : Dolby Digital
Идентификатор кодека : A_AC3
Продолжительность : 1 ч. 5 м.
Вид битрейта : Постоянный
Битрейт : 384 Кбит/сек
Каналы : 6 каналов
Channel layout : L R C LFE Ls Rs
Частота : 48,0 КГц
Частота кадров : 31,250 кадров/сек (1536 SPF)
Метод сжатия : С потерями
Размер потока : 180 Мбайт (2%)
Язык : Ukrainian
Service kind : Complete Main
Default : Нет
Forced : Нет

Аудио #7
Идентификатор : 8
Формат : E-AC-3 JOC
Формат/Информация : Enhanced AC-3 with Joint Object Coding
Коммерческое название : Dolby Digital Plus with Dolby Atmos
Идентификатор кодека : A_EAC3
Продолжительность : 1 ч. 5 м.
Вид битрейта : Постоянный
Битрейт : 768 Кбит/сек
Каналы : 6 каналов
Channel layout : L R C LFE Ls Rs
Частота : 48,0 КГц
Частота кадров : 31,250 кадров/сек (1536 SPF)
Метод сжатия : С потерями
Размер потока : 360 Мбайт (4%)
Язык : English
Service kind : Complete Main
Default : Нет
Forced : Нет
Complexity index : 16
Number of dynamic objects : 15
Bed channel count : 1 канал
Bed channel configuration : LFE

Текст #1
Идентификатор : 9
Формат : UTF-8
Идентификатор кодека : S_TEXT/UTF8
Идентификатор кодека/Информация : UTF-8 Plain Text
Продолжительность : 40 м. 31 с.
Битрейт : 4 бит/сек
Count of elements : 27
Размер потока : 1,40 Кбайт (0%)
Заголовок : Forced
Язык : Russian
Default : Да
Forced : Нет

Текст #2
Идентификатор : 10
Формат : UTF-8
Идентификатор кодека : S_TEXT/UTF8
Идентификатор кодека/Информация : UTF-8 Plain Text
Продолжительность : 1 ч. 2 м.
Битрейт : 84 бит/сек
Count of elements : 609
Размер потока : 38,7 Кбайт (0%)
Заголовок : Amedia
Язык : Russian
Default : Нет
Forced : Нет

Текст #3
Идентификатор : 11
Формат : UTF-8
Идентификатор кодека : S_TEXT/UTF8
Идентификатор кодека/Информация : UTF-8 Plain Text
Продолжительность : 1 ч. 2 м.
Битрейт : 85 бит/сек
Count of elements : 620
Размер потока : 39,3 Кбайт (0%)
Заголовок : HBO
Язык : Russian
Default : Нет
Forced : Нет

Текст #4
Идентификатор : 12
Формат : UTF-8
Идентификатор кодека : S_TEXT/UTF8
Идентификатор кодека/Информация : UTF-8 Plain Text
Продолжительность : 1 ч. 2 м.
Битрейт : 52 бит/сек
Count of elements : 690
Размер потока : 24,1 Кбайт (0%)
Язык : English
Default : Нет
Forced : Нет

Текст #5
Идентификатор : 13
Формат : UTF-8
Идентификатор кодека : S_TEXT/UTF8
Идентификатор кодека/Информация : UTF-8 Plain Text
Продолжительность : 1 ч. 5 м.
Битрейт : 60 бит/сек
Count of elements : 946
Размер потока : 28,7 Кбайт (0%)
Заголовок : SDH
Язык : English
Default : Нет
Forced : Нет

Текст #6
Идентификатор : 14
Формат : UTF-8
Идентификатор кодека : S_TEXT/UTF8
Идентификатор кодека/Информация : UTF-8 Plain Text
Продолжительность : 1 ч. 2 м.
Битрейт : 88 бит/сек
Count of elements : 699
Размер потока : 40,7 Кбайт (0%)
Заголовок : Ful
Язык : Ukrainian
Default : Нет
Forced : Нет

Меню
00:00:00.000 : en:Promo
00:01:01.061 : en:Promo End
01:03:27.000 : en:Credits

Когда раздача ведётся путём добавления новых серий, при каждом добавлении создётся новый торрент. Чтобы начать докачку новой серии, пользователям необходимо сделать следующее:
(1) остановить скачивание,
(2) удалить старый торрент у себя из клиента (старые серии удалять не надо),
(3) скачать новый торрент и запустить его у себя в клиенте вместо старого, при этом указать клиенту путь в старую папку, куда и должно происходить скачивание новых серий.
Ваш клиент при этом должен произвести хеширование (проверку) старой папки (если не производит сам - помогите ему сделать это), и будет докачивать только те серии, которых у вас ещё нет. Старые серии при этом не удаляются, а продолжают раздаваться!
Eсли вы уже удалили старые серии, то предотвратить повторную закачку старых серий можно, отжав галочку в соответсвующих местах при запуске нового торрента. По возможности, желательно не удалять старые серии как можно дольше, чтобы релизёр не столько продолжал раздавать старые серии, а смог сконцентрироваться на новых.




Скачать Дом дракона через торрент https://i7-imageban-ru.translate.goog/out/2022/08/22/8d7152d046a5ad5a1446fca048aa4284.png Скачать, смотреть онлайн Дом дракона бесплантно в хорошем качестве Описание: Приквел самого масштабного сериала 2010-х «Игра престолов». История разворачивается за 200 лет до событий саги «Песнь льда и ... 8.8 10 44
Info! Золотая раздача, скачанное не засчитывается.
Торрент: Зарегистрирован [2022-10-27 15:14] · скачан: 72 раз
Статус: √ проверено
Размер: 92.6 GB
Как cкачать? Как скачать Дом дракона через торрент | UTorrent

% Раздел Тема Автор DL S | L
Игра престолов [ 11.08 GB ] Дом дракона / House of the Dragon / Сезон: 1 / Серии: 1-10 из 10 | Amedia | DLRip-AVC bober100 Скачать
32 | 18
Игра престолов [ 8.8 GB ] Дом дракона / House of the Dragon / Сезон: 1 / Серии: 1-10 из 10 | Amedia | DLRip bober100 Скачать
22 | 13
Игра престолов [ 40.38 GB ] Дом дракона / House of the Dragon / Сезон: 1 / Серии: 1-10 из 10 | LostFilm | 1080p bober100 Скачать
14 | 6
Игра престолов [ 18.19 GB ] Дом дракона / House of the Dragon / Сезон: 1 / Серии: 1-10 из 10 | LostFilm | 1080p bober100 Скачать
17 | 5
Игра престолов [ 21.99 GB ] Дом дракона / House of the Dragon / Сезон: 1 / Серии: 1-9 из 10 | Jaskier | 1080p killermax2013 Скачать
3 | 1
Игра престолов [ 42.03 GB ] Дом дракона / House of the Dragon / Сезон: 1 / Серии: 1-10 из 10 | Amedia | 1080p bober100 Скачать
24 | 22
Игра престолов [ 7.67 GB ] Дом дракона / House of the Dragon / Сезон: 1 / Серии: 1-10 из 10 | LostFilm | DLRip bober100 Скачать
27 | 7



Последний раз редактировалось: bober100 (2022-10-27 15:14), всего редактировалось 22 раз(а)

28-11-2019 20:33  


Отключить вcю реклaмy на сайте, в т.ч. и в плеере онлайн просмотра!

29-08-2022 07:15 Дом дракона Скачать торрент  

2 серия просто дно



29-08-2022 18:41 Дом дракона Скачать торрент  

Dimm312007 писал(а):

2 серия без озвучки, блин лениво эти субтитры гребаные читать

Dimm312007 писал(а):

2 серия без озвучки, блин лениво эти субтитры гребаные читать

https://igra-prestolov.vip/episodes/dragon-1-sezon-2-seriya10/
здесь можно посмотреть в дубляже. К сожалению мои коментарии пиратбит удаляет, хотя я более 12 лет пользуюсь этим сайтом. Смотрите скорее, а я уже задумываюсь, надо ли мне этим сайтом пользоваться, раз со мной вот так поступили и скорее всего еще поступят!
Модераторы, одумайтесь, если еще раз удалите этот коментарий, то я подам на Вас жалобу вышестоящему руководству!!!



04-09-2022 17:17 Дом дракона Скачать торрент  

nixonaze писал(а):

da i pervaya ne skazat chto vau... da i roja glavnoy geroini pohoja na mordu balnogo chelobeka


в точку!!!



05-09-2022 17:00 Дом дракона Скачать торрент  

nixonaze писал(а):

da i pervaya ne skazat chto vau... da i roja glavnoy geroini pohoja na mordu balnogo chelobeka

Предок нормальной жопы.



09-09-2022 06:19 Дом дракона Скачать торрент  

как переключать между переводами?



12-09-2022 11:09 Дом дракона Скачать торрент  

до 4 серии всё работало прекрасно,4 серия же запускается не везде



19-10-2022 22:05 Дом дракона Скачать торрент  

на 9 серии - 55 минут норм на 56 минуте сброс видео.... спасибо за такую подставу пошел на др сайт....



    Дорогой пользователь! Огромная просьба, поблагодарите релизера, оцените раздачу и оставьте свои комментарий, если Вы скачали Дом дракона через торрент бесплатно!!
    Комментировать посты могут только пользователи прошедшие не сложную регистрацию
    Показать сообщения:    


    Дом дракона через торрент
    Скачать бесплатно Дом дракона
    Дом дракона скачать торрент
    Дом дракона смотреть онлайн
    Cкачать фильм Дом дракона бесплатно
    Дом дракона скачать торрент в хорошем качестве
    Дом дракона смотреть онлайн бесплатно в хорошем качестве
    Вы не можете начинать темы
    Вы не можете отвечать на сообщения
    Вы не можете редактировать свои сообщения
    Вы не можете удалять свои сообщения
    Вы не можете голосовать в опросах
    Вы не можете прикреплять файлы к сообщениям
    Вы можете скачивать файлы
    Дом дракона / House of the Dragon / Сезон: 1 / Серии: 1-10 из 10 [2022, Фэнтези, боевик, драма, мелодрама, UHD WEB-DL 2160p] Дубляж [Кравец / Amedia] +5xMVO смотреть онлайн, скачать торрент picoco.icu