Достать ножи: Стеклянная луковица

MVO

Добыча

Дубляж

Уэнсдэй

1 сезон

Тор

Дубляж

13 клиническая

1 сезон

Жестокая ночь

MVO

Одни из нас

1 сезон

Deluxe

pack

Рекомендуем

30

Пиратка

ВАЖНО

ВАЖНО

Ghostwire

Пиратка

jed

RePack

nioh2

RePack

RDR2

RePack

NEED FOR SPEED™ PAYBACK

RePack

скачать торрент

Кинопоиск HD

Острые козырьки 6 сезон

6 сезон

FAR CRY 6

RePack

скачать торрент

Лицензия

скачать торрент

MVO

1

1 сезон

скачать торрент

1 сезон

скачать торрент

Лицензия

  

От рассвета до заката / Американская резня / American Carnage ( Диего Халливис) [2022, триллер, драма, комедия, фантастика, WEB-DLRip-AVC] MVO [GoLTFilm] от ExKinoRay

От рассвета до заката через торрент pb.wtf

Раздают: 2 [ 0 KB/s ]
Размер: 1.71 GB | Добавлен: 5 мес. 4 д. назад | Торрент скачан:270 раз
Смотреть онлайн | Скачать | Поддержите нас   

22-08-2022 19:19 От рассвета до заката Скачать торрент  


От рассвета до заката / American Carnage
Название: От рассвета до заката
Оригинальное название: American Carnage
Год выхода: 2022
Жанр: триллер, драма, комедия, фантастика
Режиссер: Диего Халливис
В ролях: Хорхе Лендеборг мл., Дженна Ортега, Аллен Мальдонадо, Эрик Дэйн, Бретт Каллен, Хорхе Диас, Белла Ортис, Юмари Моралес, Катрин МакКафферти, Эндрю Кэмпфер

Описание: Правительство отбирает молодых людей для участия в эксперименте на выживание в стенах специального учреждения. Только выполнив странные желания пациентов учреждения, они смогут обрести свободу. Брату и сестре Джей Пи и Лили, и их новым знакомым предстоит узнать, в чем суть эксперимента, и что скрывает руководство. Что на самом деле движет пациентами, и что за чертовщина творится в этих стенах?



Страна: США
Студия: Saban Films
Продолжительность: 01:40:33
Перевод: Любительский (многоголосый, закадровый) - GoLTFilm - Присутствует ненормативная лексика!



Информация о файле:
Кодек: AVC
Формат: MKV
Качество: WEB-DLRip-AVC
Видео: MPEG-4 AVC, 1024x428, 23.976 fps, 1850 kb/s
Аудио RU: AC3, 2 ch, 48 kHz, 192 kbps
Аудио EN: AC3, 6 ch, 48 kHz, 384 kbps
Субтитры: Английские



[x264] frame I:1295 Avg QP:14.35 size: 66857
[x264] frame P:34482 Avg QP:16.48 size: 20914
[x264] frame B:108871 Avg QP:18.03 size: 5396
General
Unique ID : 104817934629845352028773096653149158446 (0x4EDB332CBA5AB0BFFFEB3319BBEFBC2E)
Complete name : D:uTorrentРипы wolf1245American Carnage.2022.MVO.GoLTFilm.X264.WEB-DLRip-AVC.[wolf1245.ExKinoRay].mkv
Format : Matroska
Format version : Version 4
File size : 1.71 GiB
Duration : 1 h 40 min
Overall bit rate : 2 428 kb/s
Movie name : American Carnage.2022.MVO.GoLTFilm.X264.WEB-DLRip-AVC.[wolf1245.ExKinoRay]
Encoded date : UTC 2022-08-22 19:06:01
Writing application : mkvmerge v70.0.0 ('Caught A Lite Sneeze') 64-bit
Writing library : libebml v1.4.2 + libmatroska v1.6.4
Video
ID : 1
Format : AVC
Format/Info : Advanced Video Codec
Format profile : [email protected]
Format settings : CABAC / 12 Ref Frames
Format settings, CABAC : Yes
Format settings, Reference frames : 12 frames
Codec ID : V_MPEG4/ISO/AVC
Duration : 1 h 40 min
Bit rate : 1 850 kb/s
Width : 1 024 pixels
Height : 428 pixels
Display aspect ratio : 2.40:1
Frame rate mode : Constant
Frame rate : 23.976 (24000/1001) FPS
Color space : YUV
Chroma subsampling : 4:2:0
Bit depth : 8 bits
Scan type : Progressive
Bits/(Pixel*Frame) : 0.176
Stream size : 1.30 GiB (76%)
Writing library : x264 core 163
Encoding settings : cabac=1 / ref=12 / deblock=1:-1:-1 / analyse=0x3:0x133 / me=umh / subme=9 / psy=1 / psy_rd=0.98:0.15 / mixed_ref=1 / me_range=32 / chroma_me=1 / trellis=2 / 8x8dct=1 / cqm=0 / deadzone=21,11 / fast_pskip=1 / chroma_qp_offset=-3 / threads=10 / lookahead_threads=2 / sliced_threads=0 / nr=0 / decimate=0 / interlaced=0 / bluray_compat=0 / constrained_intra=0 / bframes=12 / b_pyramid=2 / b_adapt=2 / b_bias=0 / direct=3 / weightb=1 / open_gop=0 / weightp=2 / keyint=240 / keyint_min=24 / scenecut=40 / intra_refresh=0 / rc_lookahead=100 / rc=2pass / mbtree=0 / bitrate=1850 / ratetol=1.0 / qcomp=0.70 / qpmin=0 / qpmax=69 / qpstep=4 / cplxblur=20.0 / qblur=0.5 / vbv_maxrate=50000 / vbv_bufsize=62500 / nal_hrd=none / filler=0 / ip_ratio=1.37 / pb_ratio=1.27 / aq=3:0.80
Language : English
Default : Yes
Forced : No
Color range : Limited
Color primaries : BT.709
Transfer characteristics : BT.709
Matrix coefficients : BT.709
Audio #1
ID : 2
Format : AC-3
Format/Info : Audio Coding 3
Commercial name : Dolby Digital
Codec ID : A_AC3
Duration : 1 h 40 min
Bit rate mode : Constant
Bit rate : 192 kb/s
Channel(s) : 2 channels
Channel layout : L R
Sampling rate : 48.0 kHz
Frame rate : 31.250 FPS (1536 SPF)
Compression mode : Lossy
Stream size : 138 MiB (8%)
Title : MVO | GoLTFilm | RUS
Language : Russian
Service kind : Complete Main
Default : Yes
Forced : No
Audio #2
ID : 3
Format : AC-3
Format/Info : Audio Coding 3
Commercial name : Dolby Digital
Codec ID : A_AC3
Duration : 1 h 40 min
Bit rate mode : Constant
Bit rate : 384 kb/s
Channel(s) : 6 channels
Channel layout : L R C LFE Ls Rs
Sampling rate : 48.0 kHz
Frame rate : 31.250 FPS (1536 SPF)
Compression mode : Lossy
Stream size : 276 MiB (16%)
Title : Original | ENG
Language : English
Service kind : Complete Main
Default : No
Forced : No
Text #1
ID : 4
Format : UTF-8
Codec ID : S_TEXT/UTF8
Codec ID/Info : UTF-8 Plain Text
Duration : 1 h 35 min
Bit rate : 60 b/s
Count of elements : 1506
Stream size : 42.7 KiB (0%)
Title : Full
Language : English
Default : No
Forced : No
Text #2
ID : 5
Format : UTF-8
Codec ID : S_TEXT/UTF8
Codec ID/Info : UTF-8 Plain Text
Duration : 1 h 38 min
Bit rate : 65 b/s
Count of elements : 1711
Stream size : 47.0 KiB (0%)
Title : SDH
Language : English
Default : No
Forced : No
Релиз от:
Автор релиза:



Скачать От рассвета до заката через торрент http://i120.fastpic.org/big/2022/0822/b7/38ce76552fbc3a37d879d3e0f8707db7.jpg Скачать, смотреть онлайн От рассвета до заката бесплантно в хорошем качестве Описание: Правительство отбирает молодых людей для участия в эксперименте на выживание в стенах специального учреждения. Только выполнив ... 10 10 8
Торрент: Зарегистрирован [2022-08-22 19:19] · скачан: 270 раз
Статус: T временная
Размер: 1.71 GB
Как cкачать? Как скачать От рассвета до заката через торрент | UTorrent

% Раздел Тема Автор DL S | L
Фильмы 2022-2023 [DVDrip, WEB-DLRip, HDrip] (DUB, MVO) [ 746 MB ] От рассвета до заката / Американская резня / American Carnage | iTunes | BDRip bober100 Скачать
1 | 0
Фильмы 2022-2023 [DVDrip, WEB-DLRip, HDrip] (DUB, MVO) [ 1.93 GB ] От рассвета до заката / Американская резня / American Carnage | iTunes | HDRip-AVC bober100 Скачать
1 | 0
Фильмы 2022-2023 [DVDrip, WEB-DLRip, HDrip] (DUB, MVO) [ 1.46 GB ] От рассвета до заката / Американская резня / American Carnage | iTunes | BDRip bober100 Скачать
1 | 0
Фильмы [HD 720p, 1080p] (Хороший звук DUB, MVO) [ 11.77 GB ] От рассвета до заката / Американская резня / American Carnage | iTunes | 1080p bober100 Скачать
2 | 0

28-11-2019 20:33  


Отключить вcю реклaмy на сайте, в т.ч. и в плеере онлайн просмотра!

    Дорогой пользователь! Огромная просьба, поблагодарите релизера, оцените раздачу и оставьте свои комментарий, если Вы скачали От рассвета до заката через торрент бесплатно!!
    Комментировать посты могут только пользователи прошедшие не сложную регистрацию
    Показать сообщения:    


    От рассвета до заката через торрент
    Скачать бесплатно От рассвета до заката
    От рассвета до заката скачать торрент
    От рассвета до заката смотреть онлайн
    Cкачать фильм От рассвета до заката бесплатно
    От рассвета до заката скачать торрент в хорошем качестве
    От рассвета до заката смотреть онлайн бесплатно в хорошем качестве
    Вы можете начинать темы
    Вы можете отвечать на сообщения
    Вы не можете редактировать свои сообщения
    Вы не можете удалять свои сообщения
    Вы не можете голосовать в опросах
    Вы не можете прикреплять файлы к сообщениям
    Вы можете скачивать файлы
    От рассвета до заката / Американская резня / American Carnage [2022, триллер, драма, комедия, фантастика, WEB-DLRip-AVC] MVO [GoLTFilm] от ExKinoRay смотреть онлайн, скачать торрент picoco.icu