Доктор Стрэндж

Лицензия

Добыча

Дубляж

Уэнсдэй

1 сезон

Тор

Дубляж

В эфире

Дубляж

Там, где раки поют

MVO

Властелин колец

1 сезон

Deluxe

pack

Рекомендуем

30

Пиратка

ВАЖНО

ВАЖНО

Ghostwire

Пиратка

jed

RePack

nioh2

RePack

RDR2

RePack

NEED FOR SPEED™ PAYBACK

RePack

скачать торрент

Кинопоиск HD

Острые козырьки 6 сезон

6 сезон

FAR CRY 6

RePack

скачать торрент

Лицензия

скачать торрент

MVO

1

1 сезон

скачать торрент

1 сезон

скачать торрент

Лицензия

  

Топ Ган: Мэверик / Top Gun: Maverick (Джозеф Косински) [2022, Боевик, драма, UHD WEB-DL-HEVC 2160p] [IMAX] 2xMVO [Jaskier, NewComers]

Топ Ган: Мэверик через торрент pb.wtf

Раздают: 4 [ 0 KB/s ]
Размер: 23.66 GB | Добавлен: 3 мес. 14 д. назад | Торрент скачан:287 раз
Смотреть онлайн | Скачать   

23-08-2022 03:09 Топ Ган: Мэверик Скачать торрент  

Топ Ган: Мэверик
Top Gun: Maverick

Год выпуска: 2022
Страна: США
Студия: Don Simpson/Jerry Bruckheimer Films, Jerry Bruckheimer Films, Paramount Pictures, Skydance Productions
Жанр: Боевик, драма
Продолжительность: 02:10:14
Перевод(ы):
#1: Профессиональный многоголосый | Jaskier
#2: Профессиональный многоголосый | NewComers
Субтитры: Русские (Forced, full), английские

Режиссер: Джозеф Косински

rating

В ролях: Том Круз, Майлз Теллер, Дженнифер Коннелли, Джон Хэмм, Глен Пауэлл, Льюис Пуллман, Вэл Килмер, Моника Барбаро, Эд Харрис, Джин Луиса Келли и другие.

Описание: Пит Митчелл по прозвищу Мэверик более 30 лет остается одним из лучших пилотов ВМФ: бесстрашный летчик-испытатель, он расширяет границы возможного и старательно избегает повышения в звании, которое заставило бы его приземлиться навсегда. Приступив к подготовке отряда выпускников «Топ Ган» для специальной миссии, подобной которой никогда не было, Мэверик встречает лейтенанта Брэдли Брэдшоу, сына своего покойного друга, лейтенанта Ника Брэдшоу. Впереди - неопределенность, за спиной - призраки прошлого. Мэверик вынужден противостоять своим глубинным страхам, которые грозят ожить в рамках миссии, требующей исключительной самоотверженности от тех, кто будет назначен на вылет.

Качество: UHD WEB-DL-HEVC 2160p | IMAX
Формат: MKV

Видео: 3840x2024 at 23.976 fps, MPEG-H HEVC HDR ~ 24400 kbps avg
Аудио #01: 48 kHz, AC3, 5.1, 448 Kbps | Профессиональный многоголосый | Jaskier | RUS |
Аудио #02: 48 kHz, AC3, 5.1, 384 Kbps | Профессиональный многоголосый | NewComers | RUS |
Аудио #03: 48 kHz, E-AC3, 5.1, 768 Kbps | Оригинал | ENG |
скриншот  скриншот  скриншот  скриншот  скриншот  

General
Unique ID : 143054440073341751119756662150598250111 (0x6B9F48717969380D1E856BC211404E7F)
Complete name : F:VideoTop.Gun.Maverick.2022.WEB-DL.2160p.HDR.seleZen.mkv
Format : Matroska
Format version : Version 4
File size : 23.7 GiB
Duration : 2 h 10 min
Overall bit rate : 26.0 Mb/s
Movie name : Top Gun Maverick 2022 from seleZen
Encoded date : UTC 2022-08-22 23:33:38
Writing application : mkvmerge v59.0.0 ('Shining Star') 64-bit
Writing library : libebml v1.4.2 + libmatroska v1.6.4

Video
ID : 1
Format : HEVC
Format/Info : High Efficiency Video Coding
Format profile : Main [email protected]@High
HDR format : SMPTE ST 2086, HDR10 compatible
Codec ID : V_MPEGH/ISO/HEVC
Duration : 2 h 10 min
Bit rate : 24.4 Mb/s
Width : 3 840 pixels
Height : 2 024 pixels
Display aspect ratio : 1.897
Frame rate mode : Constant
Frame rate : 23.976 FPS
Color space : YUV
Chroma subsampling : 4:2:0 (Type 2)
Bit depth : 10 bits
Bits/(Pixel*Frame) : 0.131
Stream size : 22.2 GiB (94%)
Default : Yes
Forced : No
Color range : Limited
Color primaries : BT.2020
Transfer characteristics : PQ
Matrix coefficients : BT.2020 non-constant
Mastering display color pri: Display P3
Mastering display luminance: min: 0.0050 cd/m2, max: 1000 cd/m2
Maximum Content Light Level: 897 cd/m2
Maximum Frame-Average Light: 497 cd/m2

Audio #1
ID : 2
Format : AC-3
Format/Info : Audio Coding 3
Commercial name : Dolby Digital
Codec ID : A_AC3
Duration : 2 h 10 min
Bit rate mode : Constant
Bit rate : 448 kb/s
Channel(s) : 6 channels
Channel layout : L R C LFE Ls Rs
Sampling rate : 48.0 kHz
Frame rate : 31.250 FPS (1536 SPF)
Compression mode : Lossy
Stream size : 417 MiB (2%)
Title : MVO [Jaskier]
Language : Russian
Service kind : Complete Main
Default : Yes
Forced : Yes

Audio #2
ID : 3
Format : AC-3
Format/Info : Audio Coding 3
Commercial name : Dolby Digital
Codec ID : A_AC3
Duration : 2 h 10 min
Bit rate mode : Constant
Bit rate : 384 kb/s
Channel(s) : 6 channels
Channel layout : L R C LFE Ls Rs
Sampling rate : 48.0 kHz
Frame rate : 31.250 FPS (1536 SPF)
Compression mode : Lossy
Stream size : 358 MiB (1%)
Title : MVO [NewComers]
Language : Russian
Service kind : Complete Main
Default : No
Forced : No

Audio #3
ID : 4
Format : E-AC-3 JOC
Format/Info : Enhanced AC-3 with Joint Object Coding
Commercial name : Dolby Digital Plus with Dolby Atmos
Codec ID : A_EAC3
Duration : 2 h 10 min
Bit rate mode : Constant
Bit rate : 768 kb/s
Channel(s) : 6 channels
Channel layout : L R C LFE Ls Rs
Sampling rate : 48.0 kHz
Frame rate : 31.250 FPS (1536 SPF)
Compression mode : Lossy
Stream size : 715 MiB (3%)
Title : Original
Language : English
Service kind : Complete Main
Default : No
Forced : No
Complexity index : 16
Number of dynamic objects : 15
Bed channel count : 1 channel
Bed channel configuration : LFE

Text #1
ID : 5
Format : UTF-8
Codec ID : S_TEXT/UTF8
Codec ID/Info : UTF-8 Plain Text
Duration : 58 min 14 s
Bit rate : 3 b/s
Frame rate : 0.008 FPS
Count of elements : 29
Stream size : 1.59 KiB (0%)
Title : Forced
Language : Russian
Default : No
Forced : No

Text #2
ID : 6
Format : UTF-8
Codec ID : S_TEXT/UTF8
Codec ID/Info : UTF-8 Plain Text
Duration : 2 h 1 min
Bit rate : 75 b/s
Frame rate : 0.199 FPS
Count of elements : 1447
Stream size : 67.2 KiB (0%)
Title : Full
Language : Russian
Default : No
Forced : No

Text #3
ID : 7
Format : UTF-8
Codec ID : S_TEXT/UTF8
Codec ID/Info : UTF-8 Plain Text
Duration : 2 h 1 min
Bit rate : 57 b/s
Frame rate : 0.216 FPS
Count of elements : 1568
Stream size : 51.1 KiB (0%)
Title : Full
Language : English
Default : No
Forced : No

Text #4
ID : 8
Format : UTF-8
Codec ID : S_TEXT/UTF8
Codec ID/Info : UTF-8 Plain Text
Duration : 2 h 1 min
Bit rate : 63 b/s
Frame rate : 0.241 FPS
Count of elements : 1762
Stream size : 56.7 KiB (0%)
Title : SDH
Language : English
Default : No
Forced : No

Menu
00:00:00.000 : Глава 01
00:12:29.972 : Глава 02
00:24:59.972 : Глава 03
00:37:29.972 : Глава 04
00:49:59.972 : Глава 05
01:02:29.972 : Глава 06
01:14:59.972 : Глава 07
01:27:29.972 : Глава 08
01:39:59.972 : Глава 09
01:52:29.972 : Глава 10
02:04:59.972 : Глава 11




Скачать Топ Ган: Мэверик через торрент https://i120.fastpic.org/big/2022/0823/25/10be01027a5f694e288ed8e1660cc325.jpg Скачать, смотреть онлайн Топ Ган: Мэверик бесплантно в хорошем качестве Описание: Пит Митчелл по прозвищу Мэверик более 30 лет остается одним из лучших пилотов ВМФ: бесстрашный летчик-испытатель, он расширяет ... 5.4 10 22
Торрент: Зарегистрирован [2022-08-23 03:09] · скачан: 287 раз
Статус: √ проверено
Размер: 23.66 GB
Как cкачать? Как скачать Топ Ган: Мэверик через торрент | UTorrent

% Раздел Тема Автор DL S | L
Фильмы [HD 720p, 1080p] (Хороший звук DUB, MVO) [ 11.94 GB ] Топ Ган: Мэверик / Top Gun: Maverick | Пифагор | 1080p bober100 Скачать
9 | 1
Ultra HD (UHD: 2K, 4K, 8K) [ 60.37 GB ] Топ Ган: Мэверик / Top Gun: Maverick | Пифагор | 2160p bober100 Скачать
2 | 0
Ultra HD (UHD: 2K, 4K, 8K) [ 70.1 GB ] Топ Ган: Мэверик / Top Gun: Maverick | Пифагор | 2160p, (Dolby Vision bober100 Скачать
2 | 1
Ultra HD (UHD: 2K, 4K, 8K) [ 60.4 GB ] Топ Ган: Мэверик / Top Gun: Maverick | Пифагор | 2160p, (Dolby Vision Profile 8 bober100 Скачать
2 | 0
Фильмы 2022 [DVDrip, WEB-DLRip, HDrip] (DUB, MVO) [ 2.18 GB ] Топ Ган: Мэверик / Top Gun: Maverick | Пифагор | BDRip bober100 Скачать
8 | 0
Фильмы (Blu-ray, BD-Remux, HDDVD) [ 32.11 GB ] Топ Ган: Мэверик / Top Gun: Maverick | Пифагор | BD Remux 1080p bober100 Скачать
5 | 0
Фильмы 2022 [DVDrip, WEB-DLRip, HDrip] (DUB, MVO) [ 2.16 GB ] Топ Ган: Мэверик / Top Gun: Maverick | Пифагор | DLRip-AVC bober100 Скачать
45 | 0

28-11-2019 20:33  


Отключить вcю реклaмy на сайте, в т.ч. и в плеере онлайн просмотра!

25-08-2022 13:39 Топ Ган: Мэверик Скачать торрент  

Хороший фильм



    Дорогой пользователь! Огромная просьба, поблагодарите релизера, оцените раздачу и оставьте свои комментарий, если Вы скачали Топ Ган: Мэверик через торрент бесплатно!!
    Комментировать посты могут только пользователи прошедшие не сложную регистрацию
    Показать сообщения:    


    Топ Ган: Мэверик через торрент
    Скачать бесплатно Топ Ган: Мэверик
    Топ Ган: Мэверик скачать торрент
    Топ Ган: Мэверик смотреть онлайн
    Cкачать фильм Топ Ган: Мэверик бесплатно
    Топ Ган: Мэверик скачать торрент в хорошем качестве
    Топ Ган: Мэверик смотреть онлайн бесплатно в хорошем качестве
    Вы не можете начинать темы
    Вы не можете отвечать на сообщения
    Вы не можете редактировать свои сообщения
    Вы не можете удалять свои сообщения
    Вы не можете голосовать в опросах
    Вы не можете прикреплять файлы к сообщениям
    Вы можете скачивать файлы
    Топ Ган: Мэверик / Top Gun: Maverick [2022, Боевик, драма, UHD WEB-DL-HEVC 2160p] [IMAX] 2xMVO [Jaskier, NewComers] смотреть онлайн, скачать торрент picoco.icu