Достать ножи: Стеклянная луковица

MVO

Добыча

Дубляж

Уэнсдэй

1 сезон

Тор

Дубляж

13 клиническая

1 сезон

Жестокая ночь

MVO

Одни из нас

1 сезон

Deluxe

pack

Рекомендуем

30

Пиратка

ВАЖНО

ВАЖНО

Ghostwire

Пиратка

jed

RePack

nioh2

RePack

RDR2

RePack

NEED FOR SPEED™ PAYBACK

RePack

скачать торрент

Кинопоиск HD

Острые козырьки 6 сезон

6 сезон

FAR CRY 6

RePack

скачать торрент

Лицензия

скачать торрент

MVO

1

1 сезон

скачать торрент

1 сезон

скачать торрент

Лицензия

  

Звёздные войны. Сага / Star Wars. The Complete Saga [1977 - 2019, Фантастика, боевик, приключения, WEB-DLRip - HEVC 1080p 10 bit 60 FPS, Дубляж]

Звёздные войны. Сага через торрент pb.wtf

Раздают: 2 [ 0 KB/s ]
Размер: 34.29 GB | Добавлен: 5 мес. 12 д. назад | Торрент скачан:61 раз
| Скачать | Поддержите нас   

23-08-2022 09:49 Звёздные войны. Сага Скачать торрент  

Star Wars: The Complete Saga
Информация Описание:
Название: Звездные войны: Сага
Оригинальное название: Star Wars. The Complete Saga
Год выхода: 1977-2019
Жанр: Фантастика, боевик, приключения
Режиссер: Джордж Лукас, Ирвин Кершнер, Ричард Маркуэнд, Райан Джонсон (I), Гарет Эдвардс, Рон Ховард, Джей Джей Абрамс
В ролях: Марк Хэмилл, Харрисон Форд, Кэрри Фишер, Питер Кушинг, Алек Гиннесс, Энтони Дэниелс, Кенни Бэйкер, Питер Мейхью, Дэвид Праус, Джеймс Эрл Джонс, Билли Ди Уильямс, Фрэнк Оз, Иэн МакДайармид, Лиам Нисон, Эван МакГрегор, Натали Портман, Джейк Ллойд, Пернилла Огаст, Оливер Форд Дэвис, Теренс Стэмп, Рэй Парк, Силас Карсон, Сэмюэл Л. Джексон, Джон Бойега
Описание: Давным-давно, в далёкой-далёкой галактике бушевали звёздные войны. Эта удивительная космическая сага повествует о жизненном пути двух поколений Скайуокеров, порождённых самой Силой – сверхъестественной энергии всех живых существ, связывающей Вселенную воедино. У Силы есть Светлая и Тёмная стороны, каждая из которой имеет своих приверженцев: самоотверженных хранителей мира – рыцарей джедаев и гордых служителей своих страстей – Ситхов. Страх – путь к Темной стороне Силы… Страх ведёт к злости, злость – к ненависти, а ненависть – к страданиям. Весь этот трагический путь прошёл когда-то молодой Энакин Скайуокер, в конце которого стал Дартом Вейдером – адептом Тёмной стороны Силы и учеником владыки Ситхов Дарта Сидиуса. Однако у Энакина остался сын – Люк Скайуокер, призванный, по предсказанию: вернуть мир Галактике; и по долгу: вернуть своего отца из мрака Тьмы, вернуть джедая. Вся эта захватывающая история переплетена множественными сюжетными линиями, повествующими о дружбе, долге, взаимовыручке, а так же о коварстве и холодном расчёте, готовом пройти через всё и вся на пути к цели. Ну и, конечно же «Звёздные войны» – это захватывающие дух космические баталии, когда мириады звёздных истребителей проносятся через вихри атак, лавируя между пунктирами бластеров и армадами крейсеров, разрывая космический вакуум пронзительным рёвом, это гул и скрежет световых мечей, это целая вселенная Джорджа Лукаса, продолжающая жить и поныне…
Страна: США
Студия: Lucasfilm, Bad Robot, Truenorth Productions, Allison Shearmur Productions, Black Hangar Studios, Ram Bergman Productions, Walt Disney Pictures
Перевод: Дублированный | Nevafilm

Общее
Уникальный идентификатор : 203885984163697267883149338495142313805 (0x9963032077D00188A427EB06920BBF4D)
Полное имя : E:\Star Wars Collection (1997 - ...) WEB-DLRip - HEVC 1080p 10 bit 60 FPS\Star Wars The Complete Saga (1977 - 2019) WEB-DLRip - HEVC 1080p 10 bit 60 FPS\Star Wars Episode I - The Phantom Menace (1999) WEB-DLRip - HEVC 1080p 10 bit 60 FPS.mkv
Формат : Matroska
Версия формата : Version 2
Размер файла : 3,01 Гбайт
Продолжительность : 2 ч. 10 м.
Общий поток : 3 295 Кбит/сек
Название фильма : Rip by from DD2D3
Дата кодирования : UTC 2022-08-09 16:52:25
Программа кодирования : mkvmerge v6.9.1 ('Blue Panther') 32bit built on Apr 18 2014 18:15:44
Библиотека кодирования : libebml v1.3.0 + libmatroska v1.4.1
Attachments : poster

Видео
Идентификатор : 1
Формат : HEVC
Формат/Информация : High Efficiency Video Coding
Профиль формата : Main [email protected]@Main
Идентификатор кодека : V_MPEGH/ISO/HEVC
Продолжительность : 2 ч. 10 м.
Битрейт : 2 781 Кбит/сек
Ширина : 1 920 пикселей
Высота : 808 пикселей
Высота оригинала : 804 пикселя
Соотношение сторон : 2,40:1
Соотношение сторон в оригинале : 2,40:1
Режим частоты кадров : Постоянный
Частота кадров : 60,000 кадров/сек
Цветовое пространство : YUV
Субдискретизация насыщенности : 4:2:0
Битовая глубина : 10 бит
Бит/(Пиксели*Кадры) : 0.030
Размер потока : 2,54 Гбайт (84%)
Default : Да
Forced : Нет
Цветовой диапазон : Limited
Основные цвета : BT.709
Характеристики трансфера : BT.709
Коэффициенты матрицы : BT.709

Аудио
Идентификатор : 2
Формат : E-AC-3
Формат/Информация : Enhanced AC-3
Коммерческое название : Dolby Digital Plus
Идентификатор кодека : A_EAC3
Продолжительность : 2 ч. 10 м.
Вид битрейта : Постоянный
Битрейт : 448 Кбит/сек
Каналы : 6 каналов
Channel layout : L R C LFE Ls Rs
Частота : 48,0 КГц
Частота кадров : 31,250 кадров/сек (1536 SPF)
Метод сжатия : С потерями
Размер потока : 419 Мбайт (14%)
Заголовок : [Nevafilm | E-AC3 Audio]
Язык : Russian
Service kind : Complete Main
Default : Да
Forced : Нет
Statistics Tags Issue : mkvmerge v68.0.0 ('The Curtain') 64-bit 2022-07-19 05:01:47 / mkvmerge v6.9.1 ('Blue Panther') 32bit built on Apr 18 2014 18:15:44 2022-08-09 16:52:25
FromStats_BitRate : 448000
FromStats_Duration : 02:10:40.608000000
FromStats_FrameCount : 245019
FromStats_StreamSize : 439074048

Текст
Идентификатор : 3
Формат : UTF-8
Идентификатор кодека : S_TEXT/UTF8
Идентификатор кодека/Информация : UTF-8 Plain Text
Заголовок : [Full]
Язык : Russian
Default : Нет
Forced : Нет
Statistics Tags Issue : mkvmerge v68.0.0 ('The Curtain') 64-bit 2022-07-19 05:01:47 / mkvmerge v6.9.1 ('Blue Panther') 32bit built on Apr 18 2014 18:15:44 2022-08-09 16:52:25
FromStats_BitRate : 91
FromStats_Duration : 02:02:22.520000000
FromStats_FrameCount : 1433
FromStats_StreamSize : 84345


Общее
Уникальный идентификатор : 216689621215406054921220852488876016940 (0xA304E72BE75B1F298CFAA4E8BDBB452C)
Полное имя : E:\Star Wars Collection (1997 - ...) WEB-DLRip - HEVC 1080p 10 bit 60 FPS\Star Wars The Complete Saga (1977 - 2019) WEB-DLRip - HEVC 1080p 10 bit 60 FPS\Star Wars Episode II - Attack of the Clones (2002) WEB-DLRip - HEVC 1080p 10 bit 60 FPS.mkv
Формат : Matroska
Версия формата : Version 2
Размер файла : 3,13 Гбайт
Продолжительность : 2 ч. 16 м.
Общий поток : 3 278 Кбит/сек
Название фильма : Rip by from DD2D3
Дата кодирования : UTC 2022-08-10 09:13:11
Программа кодирования : mkvmerge v6.9.1 ('Blue Panther') 32bit built on Apr 18 2014 18:15:44
Библиотека кодирования : libebml v1.3.0 + libmatroska v1.4.1
Attachments : poster

Видео
Идентификатор : 1
Формат : HEVC
Формат/Информация : High Efficiency Video Coding
Профиль формата : Main [email protected]@Main
Идентификатор кодека : V_MPEGH/ISO/HEVC
Продолжительность : 2 ч. 16 м.
Битрейт : 2 765 Кбит/сек
Ширина : 1 920 пикселей
Высота : 816 пикселей
Соотношение сторон : 2,35:1
Режим частоты кадров : Постоянный
Частота кадров : 60,000 кадров/сек
Цветовое пространство : YUV
Субдискретизация насыщенности : 4:2:0
Битовая глубина : 10 бит
Бит/(Пиксели*Кадры) : 0.029
Размер потока : 2,64 Гбайт (84%)
Default : Да
Forced : Нет
Цветовой диапазон : Limited
Основные цвета : BT.709
Характеристики трансфера : BT.709
Коэффициенты матрицы : BT.709

Аудио
Идентификатор : 2
Формат : E-AC-3
Формат/Информация : Enhanced AC-3
Коммерческое название : Dolby Digital Plus
Идентификатор кодека : A_EAC3
Продолжительность : 2 ч. 16 м.
Вид битрейта : Постоянный
Битрейт : 448 Кбит/сек
Каналы : 6 каналов
Channel layout : L R C LFE Ls Rs
Частота : 48,0 КГц
Частота кадров : 31,250 кадров/сек (1536 SPF)
Метод сжатия : С потерями
Размер потока : 438 Мбайт (14%)
Заголовок : [Nevafilm | E-AC3 Audio]
Язык : Russian
Service kind : Complete Main
Default : Да
Forced : Нет
Statistics Tags Issue : mkvmerge v68.0.0 ('The Curtain') 64-bit 2022-07-19 05:59:48 / mkvmerge v6.9.1 ('Blue Panther') 32bit built on Apr 18 2014 18:15:44 2022-08-10 09:13:11
FromStats_BitRate : 448000
FromStats_Duration : 02:16:34.368000000
FromStats_FrameCount : 256074
FromStats_StreamSize : 458884608

Текст
Идентификатор : 3
Формат : UTF-8
Идентификатор кодека : S_TEXT/UTF8
Идентификатор кодека/Информация : UTF-8 Plain Text
Заголовок : [Full]
Язык : Russian
Default : Нет
Forced : Нет
Statistics Tags Issue : mkvmerge v68.0.0 ('The Curtain') 64-bit 2022-07-19 05:59:48 / mkvmerge v6.9.1 ('Blue Panther') 32bit built on Apr 18 2014 18:15:44 2022-08-10 09:13:11
FromStats_BitRate : 80
FromStats_Duration : 02:06:17.400000000
FromStats_FrameCount : 1228
FromStats_StreamSize : 75887


Общее
Уникальный идентификатор : 231660457625168358055452539503981139484 (0xAE482E64E5CD792787CF869E97DC961C)
Полное имя : E:\Star Wars Collection (1997 - ...) WEB-DLRip - HEVC 1080p 10 bit 60 FPS\Star Wars The Complete Saga (1977 - 2019) WEB-DLRip - HEVC 1080p 10 bit 60 FPS\Star Wars Episode III - Revenge of the Sith (2005) WEB-DLRip - HEVC 1080p 10 bit 60 FPS.mkv
Формат : Matroska
Версия формата : Version 2
Размер файла : 2,98 Гбайт
Продолжительность : 2 ч. 14 м.
Общий поток : 3 171 Кбит/сек
Название фильма : Rip by from DD2D3
Дата кодирования : UTC 2022-08-16 12:25:39
Программа кодирования : mkvmerge v6.9.1 ('Blue Panther') 32bit built on Apr 18 2014 18:15:44
Библиотека кодирования : libebml v1.3.0 + libmatroska v1.4.1
Attachments : poster

Видео
Идентификатор : 1
Формат : HEVC
Формат/Информация : High Efficiency Video Coding
Профиль формата : Main [email protected]@Main
Идентификатор кодека : V_MPEGH/ISO/HEVC
Продолжительность : 2 ч. 14 м.
Битрейт : 2 660 Кбит/сек
Ширина : 1 920 пикселей
Высота : 808 пикселей
Высота оригинала : 804 пикселя
Соотношение сторон : 2,40:1
Соотношение сторон в оригинале : 2,40:1
Режим частоты кадров : Постоянный
Частота кадров : 60,000 кадров/сек
Цветовое пространство : YUV
Субдискретизация насыщенности : 4:2:0
Битовая глубина : 10 бит
Бит/(Пиксели*Кадры) : 0.029
Размер потока : 2,50 Гбайт (84%)
Default : Да
Forced : Нет
Цветовой диапазон : Limited
Основные цвета : BT.709
Характеристики трансфера : BT.709
Коэффициенты матрицы : BT.709

Аудио
Идентификатор : 2
Формат : E-AC-3
Формат/Информация : Enhanced AC-3
Коммерческое название : Dolby Digital Plus
Идентификатор кодека : A_EAC3
Продолжительность : 2 ч. 14 м.
Вид битрейта : Постоянный
Битрейт : 448 Кбит/сек
Каналы : 6 каналов
Channel layout : L R C LFE Ls Rs
Частота : 48,0 КГц
Частота кадров : 31,250 кадров/сек (1536 SPF)
Метод сжатия : С потерями
Размер потока : 431 Мбайт (14%)
Заголовок : [Nevafilm | E-AC3 Audio]
Язык : Russian
Service kind : Complete Main
Default : Да
Forced : Нет
Statistics Tags Issue : mkvmerge v68.0.0 ('The Curtain') 64-bit 2022-07-19 06:44:00 / mkvmerge v6.9.1 ('Blue Panther') 32bit built on Apr 18 2014 18:15:44 2022-08-16 12:25:39
FromStats_BitRate : 448000
FromStats_Duration : 02:14:30.304000000
FromStats_FrameCount : 252197
FromStats_StreamSize : 451937024

Текст
Идентификатор : 3
Формат : UTF-8
Идентификатор кодека : S_TEXT/UTF8
Идентификатор кодека/Информация : UTF-8 Plain Text
Заголовок : [Full]
Язык : Russian
Default : Нет
Forced : Нет
Statistics Tags Issue : mkvmerge v68.0.0 ('The Curtain') 64-bit 2022-07-19 06:44:00 / mkvmerge v6.9.1 ('Blue Panther') 32bit built on Apr 18 2014 18:15:44 2022-08-16 12:25:39
FromStats_BitRate : 65
FromStats_Duration : 02:02:18.321000000
FromStats_FrameCount : 1096
FromStats_StreamSize : 59980


Общее
Уникальный идентификатор : 251515178411350008968032935235641814141 (0xBD380FB5182C8ADFB65BDD451A262C7D)
Полное имя : E:\Star Wars Collection (1997 - ...) WEB-DLRip - HEVC 1080p 10 bit 60 FPS\Star Wars The Complete Saga (1977 - 2019) WEB-DLRip - HEVC 1080p 10 bit 60 FPS\Star Wars Episode IV - A New Hope (1977) WEB-DLRip - HEVC 1080p 10 bit 60 FPS.mkv
Формат : Matroska
Версия формата : Version 2
Размер файла : 2,76 Гбайт
Продолжительность : 1 ч. 59 м.
Общий поток : 3 300 Кбит/сек
Название фильма : Rip by from DD2D3
Дата кодирования : UTC 2022-08-17 08:16:24
Программа кодирования : mkvmerge v6.9.1 ('Blue Panther') 32bit built on Apr 18 2014 18:15:44
Библиотека кодирования : libebml v1.3.0 + libmatroska v1.4.1
Attachments : poster

Видео
Идентификатор : 1
Формат : HEVC
Формат/Информация : High Efficiency Video Coding
Профиль формата : Main [email protected]@Main
Идентификатор кодека : V_MPEGH/ISO/HEVC
Продолжительность : 1 ч. 59 м.
Битрейт : 2 786 Кбит/сек
Ширина : 1 920 пикселей
Высота : 816 пикселей
Соотношение сторон : 2,35:1
Режим частоты кадров : Постоянный
Частота кадров : 60,000 кадров/сек
Цветовое пространство : YUV
Субдискретизация насыщенности : 4:2:0
Битовая глубина : 10 бит
Бит/(Пиксели*Кадры) : 0.030
Размер потока : 2,33 Гбайт (84%)
Default : Да
Forced : Нет
Цветовой диапазон : Limited
Основные цвета : BT.709
Характеристики трансфера : BT.709
Коэффициенты матрицы : BT.709

Аудио
Идентификатор : 2
Формат : E-AC-3
Формат/Информация : Enhanced AC-3
Коммерческое название : Dolby Digital Plus
Идентификатор кодека : A_EAC3
Продолжительность : 1 ч. 59 м.
Вид битрейта : Постоянный
Битрейт : 448 Кбит/сек
Каналы : 6 каналов
Channel layout : L R C LFE Ls Rs
Частота : 48,0 КГц
Частота кадров : 31,250 кадров/сек (1536 SPF)
Метод сжатия : С потерями
Размер потока : 383 Мбайт (14%)
Заголовок : [CPIG | E-AC3 Audio]
Язык : Russian
Service kind : Complete Main
Default : Да
Forced : Нет
Statistics Tags Issue : mkvmerge v68.0.0 ('The Curtain') 64-bit 2022-07-19 13:34:30 / mkvmerge v6.9.1 ('Blue Panther') 32bit built on Apr 18 2014 18:15:44 2022-08-17 08:16:24
FromStats_BitRate : 448000
FromStats_Duration : 01:59:40.000000000
FromStats_FrameCount : 224375
FromStats_StreamSize : 402080000

Текст
Идентификатор : 3
Формат : UTF-8
Идентификатор кодека : S_TEXT/UTF8
Идентификатор кодека/Информация : UTF-8 Plain Text
Заголовок : [Full]
Язык : Russian
Default : Нет
Forced : Нет
Statistics Tags Issue : mkvmerge v68.0.0 ('The Curtain') 64-bit 2022-07-19 13:34:30 / mkvmerge v6.9.1 ('Blue Panther') 32bit built on Apr 18 2014 18:15:44 2022-08-17 08:16:24
FromStats_BitRate : 109
FromStats_Duration : 01:53:12.448000000
FromStats_FrameCount : 1421
FromStats_StreamSize : 92868


Общее
Уникальный идентификатор : 197431792951916699830930986230923248150 (0x9487FAEE84F0FCDC9924BB2CE20DC216)
Полное имя : E:\Star Wars Collection (1997 - ...) WEB-DLRip - HEVC 1080p 10 bit 60 FPS\Star Wars The Complete Saga (1977 - 2019) WEB-DLRip - HEVC 1080p 10 bit 60 FPS\Star Wars Episode V - The Empire Strikes Back (1980) WEB-DLRip - HEVC 1080p 10 bit 60 FPS.mkv
Формат : Matroska
Версия формата : Version 2
Размер файла : 2,73 Гбайт
Продолжительность : 2 ч. 2 м.
Общий поток : 3 199 Кбит/сек
Название фильма : Rip by from DD2D3
Дата кодирования : UTC 2022-08-18 10:04:53
Программа кодирования : mkvmerge v6.9.1 ('Blue Panther') 32bit built on Apr 18 2014 18:15:44
Библиотека кодирования : libebml v1.3.0 + libmatroska v1.4.1
Attachments : poster

Видео
Идентификатор : 1
Формат : HEVC
Формат/Информация : High Efficiency Video Coding
Профиль формата : Main [email protected]@Main
Идентификатор кодека : V_MPEGH/ISO/HEVC
Продолжительность : 2 ч. 2 м.
Битрейт : 2 687 Кбит/сек
Ширина : 1 920 пикселей
Высота : 808 пикселей
Высота оригинала : 804 пикселя
Соотношение сторон : 2,40:1
Соотношение сторон в оригинале : 2,40:1
Режим частоты кадров : Постоянный
Частота кадров : 60,000 кадров/сек
Цветовое пространство : YUV
Субдискретизация насыщенности : 4:2:0
Битовая глубина : 10 бит
Бит/(Пиксели*Кадры) : 0.029
Размер потока : 2,29 Гбайт (84%)
Default : Да
Forced : Нет
Цветовой диапазон : Limited
Основные цвета : BT.709
Характеристики трансфера : BT.709
Коэффициенты матрицы : BT.709

Аудио
Идентификатор : 2
Формат : E-AC-3
Формат/Информация : Enhanced AC-3
Коммерческое название : Dolby Digital Plus
Идентификатор кодека : A_EAC3
Продолжительность : 2 ч. 2 м.
Вид битрейта : Постоянный
Битрейт : 448 Кбит/сек
Каналы : 6 каналов
Channel layout : L R C LFE Ls Rs
Частота : 48,0 КГц
Частота кадров : 31,250 кадров/сек (1536 SPF)
Метод сжатия : С потерями
Размер потока : 392 Мбайт (14%)
Заголовок : [Nevafilm | E-AC3 Audio]
Язык : Russian
Service kind : Complete Main
Default : Да
Forced : Нет
Statistics Tags Issue : mkvmerge v68.0.0 ('The Curtain') 64-bit 2022-07-19 14:28:10 / mkvmerge v6.9.1 ('Blue Panther') 32bit built on Apr 18 2014 18:15:44 2022-08-18 10:04:53
FromStats_BitRate : 448000
FromStats_Duration : 02:02:11.904000000
FromStats_FrameCount : 229122
FromStats_StreamSize : 410586624

Текст
Идентификатор : 3
Формат : UTF-8
Идентификатор кодека : S_TEXT/UTF8
Идентификатор кодека/Информация : UTF-8 Plain Text
Заголовок : [Full]
Язык : Russian
Default : Нет
Forced : Нет
Statistics Tags Issue : mkvmerge v68.0.0 ('The Curtain') 64-bit 2022-07-19 14:28:10 / mkvmerge v6.9.1 ('Blue Panther') 32bit built on Apr 18 2014 18:15:44 2022-08-18 10:04:53
FromStats_BitRate : 82
FromStats_Duration : 01:55:11.875000000
FromStats_FrameCount : 1203
FromStats_StreamSize : 71510


Общее
Уникальный идентификатор : 185452657987470226689783233666572043878 (0x8B84E1FA7D7EC33FB061AA91138B4666)
Полное имя : E:\Star Wars Collection (1997 - ...) WEB-DLRip - HEVC 1080p 10 bit 60 FPS\Star Wars The Complete Saga (1977 - 2019) WEB-DLRip - HEVC 1080p 10 bit 60 FPS\Star Wars Episode VI - Return of the Jedi (1983) WEB-DLRip - HEVC 1080p 10 bit 60 FPS.mkv
Формат : Matroska
Версия формата : Version 2
Размер файла : 2,89 Гбайт
Продолжительность : 2 ч. 9 м.
Общий поток : 3 199 Кбит/сек
Название фильма : Rip by DD2D3
Дата кодирования : UTC 2022-08-20 16:22:42
Программа кодирования : mkvmerge v6.9.1 ('Blue Panther') 32bit built on Apr 18 2014 18:15:44
Библиотека кодирования : libebml v1.3.0 + libmatroska v1.4.1
Attachments : poster

Видео
Идентификатор : 1
Формат : HEVC
Формат/Информация : High Efficiency Video Coding
Профиль формата : Main [email protected]@Main
Идентификатор кодека : V_MPEGH/ISO/HEVC
Продолжительность : 2 ч. 9 м.
Битрейт : 2 687 Кбит/сек
Ширина : 1 920 пикселей
Высота : 808 пикселей
Высота оригинала : 804 пикселя
Соотношение сторон : 2,40:1
Соотношение сторон в оригинале : 2,40:1
Режим частоты кадров : Постоянный
Частота кадров : 60,000 кадров/сек
Цветовое пространство : YUV
Субдискретизация насыщенности : 4:2:0
Битовая глубина : 10 бит
Бит/(Пиксели*Кадры) : 0.029
Размер потока : 2,43 Гбайт (84%)
Default : Да
Forced : Нет
Цветовой диапазон : Limited
Основные цвета : BT.709
Характеристики трансфера : BT.709
Коэффициенты матрицы : BT.709

Аудио
Идентификатор : 2
Формат : E-AC-3
Формат/Информация : Enhanced AC-3
Коммерческое название : Dolby Digital Plus
Идентификатор кодека : A_EAC3
Продолжительность : 2 ч. 9 м.
Вид битрейта : Постоянный
Битрейт : 448 Кбит/сек
Каналы : 6 каналов
Channel layout : L R C LFE Ls Rs
Частота : 48,0 КГц
Частота кадров : 31,250 кадров/сек (1536 SPF)
Метод сжатия : С потерями
Размер потока : 415 Мбайт (14%)
Заголовок : [CPIG | E-AC3 Audio]
Язык : Russian
Service kind : Complete Main
Default : Да
Forced : Нет
Statistics Tags Issue : mkvmerge v68.0.0 ('The Curtain') 64-bit 2022-07-19 15:21:55 / mkvmerge v6.9.1 ('Blue Panther') 32bit built on Apr 18 2014 18:15:44 2022-08-20 16:22:42
FromStats_BitRate : 448000
FromStats_Duration : 02:09:23.296000000
FromStats_FrameCount : 242603
FromStats_StreamSize : 434744576

Текст
Идентификатор : 3
Формат : UTF-8
Идентификатор кодека : S_TEXT/UTF8
Идентификатор кодека/Информация : UTF-8 Plain Text
Заголовок : [Full]
Язык : Russian
Default : Нет
Forced : Нет
Statistics Tags Issue : mkvmerge v68.0.0 ('The Curtain') 64-bit 2022-07-19 15:21:55 / mkvmerge v6.9.1 ('Blue Panther') 32bit built on Apr 18 2014 18:15:44 2022-08-20 16:22:42
FromStats_BitRate : 63
FromStats_Duration : 02:00:19.776000000
FromStats_FrameCount : 1048
FromStats_StreamSize : 57096


Общее
Уникальный идентификатор : 183652654467822707543591883235820657024 (0x8A2A36F3FEE31F3C8D6F8BA652955980)
Полное имя : E:\Star Wars Collection (1997 - ...) WEB-DLRip - HEVC 1080p 10 bit 60 FPS\Star Wars The Complete Saga (1977 - 2019) WEB-DLRip - HEVC 1080p 10 bit 60 FPS\Star Wars Episode VII - The Force Awakens (2015) BDRip - HEVC 1080p 10 bit 60 FPS.mkv
Формат : Matroska
Версия формата : Version 2
Размер файла : 3,28 Гбайт
Продолжительность : 2 ч. 18 м.
Общий поток : 3 400 Кбит/сек
Название фильма : Rip by from DD2D3
Дата кодирования : UTC 2022-08-12 08:55:54
Программа кодирования : mkvmerge v6.9.1 ('Blue Panther') 32bit built on Apr 18 2014 18:15:44
Библиотека кодирования : libebml v1.3.0 + libmatroska v1.4.1
Attachments : poster

Видео
Идентификатор : 1
Формат : HEVC
Формат/Информация : High Efficiency Video Coding
Профиль формата : Main [email protected]@Main
Идентификатор кодека : V_MPEGH/ISO/HEVC
Продолжительность : 2 ч. 18 м.
Битрейт : 2 692 Кбит/сек
Ширина : 1 920 пикселей
Высота : 800 пикселей
Соотношение сторон : 2,40:1
Режим частоты кадров : Постоянный
Частота кадров : 60,000 кадров/сек
Цветовое пространство : YUV
Субдискретизация насыщенности : 4:2:0
Битовая глубина : 10 бит
Бит/(Пиксели*Кадры) : 0.029
Размер потока : 2,60 Гбайт (79%)
Default : Да
Forced : Нет
Цветовой диапазон : Limited
Основные цвета : BT.709
Характеристики трансфера : BT.709
Коэффициенты матрицы : BT.709

Аудио
Идентификатор : 2
Формат : AC-3
Формат/Информация : Audio Coding 3
Коммерческое название : Dolby Digital
Идентификатор кодека : A_AC3
Продолжительность : 2 ч. 18 м.
Вид битрейта : Постоянный
Битрейт : 640 Кбит/сек
Каналы : 6 каналов
Channel layout : L R C LFE Ls Rs
Частота : 48,0 КГц
Частота кадров : 31,250 кадров/сек (1536 SPF)
Метод сжатия : С потерями
Размер потока : 632 Мбайт (19%)
Заголовок : Дубляж
Язык : Russian
Service kind : Complete Main
Default : Да
Forced : Нет
Statistics Tags Issue : mkvmerge v9.0.1 ('Obstacles') 64bit 2016-04-22 18:39:41 / mkvmerge v6.9.1 ('Blue Panther') 32bit built on Apr 18 2014 18:15:44 2022-08-12 08:55:54
FromStats_BitRate : 640000
FromStats_Duration : 02:18:06.720000000
FromStats_FrameCount : 258960
FromStats_StreamSize : 662937600

Текст
Идентификатор : 3
Формат : UTF-8
Идентификатор кодека : S_TEXT/UTF8
Идентификатор кодека/Информация : UTF-8 Plain Text
Заголовок : R5 + речь дроидов
Язык : Russian
Default : Нет
Forced : Нет
Statistics Tags Issue : mkvmerge v9.0.1 ('Obstacles') 64bit 2016-04-22 18:39:41 / mkvmerge v6.9.1 ('Blue Panther') 32bit built on Apr 18 2014 18:15:44 2022-08-12 08:55:54
FromStats_BitRate : 72
FromStats_Duration : 02:02:06.005000000
FromStats_FrameCount : 1398
FromStats_StreamSize : 66323

Меню
00:00:00.000 : en:Opening Logo
00:00:09.259 : en:The Force Awakens
00:01:43.061 : en:The First Order Approaches
00:03:51.856 : en:Village Raid
00:06:12.288 : en:Kylo Ren
00:09:33.948 : en:FN-2187
00:10:43.559 : en:Rey
00:12:35.713 : en:Niima Outpost
00:13:39.693 : en:Rey at Home
00:14:48.220 : en:Saving BB-8
00:16:45.921 : en:Interrogation
00:18:04.583 : en:Unkar's Offer
00:19:21.535 : en:Jailbreak
00:21:26.618 : en:TIE Gighter Escape
00:24:03.650 : en:Marooned on Jakku
00:26:47.022 : en:Crossing Paths
00:29:54.667 : en:Marketplace Chase
00:31:49.324 : en:The Falcon Flies Again
00:35:51.774 : en:Introductions
00:36:40.615 : en:Kylo Is Updated
00:37:45.513 : en:Fixing the Falcon
00:40:19.250 : en:"Chewie, We're Home"
00:43:39.199 : en:Corellion Stand
00:45:29.560 : en:Rathtar Mayhem
00:49:22.918 : en:Supreme Leader
00:51:19.951 : en:"It's All True"
00:54:13.750 : en:Meeting Maz
00:59:48.793 : en:Discussions of Destinies
01:04:16.060 : en:Visions in the Force
01:08:37.238 : en:Starkiller
01:11:07.221 : en:First Order Invasion
01:15:16.386 : en:Resistance to the Rescue
01:16:49.896 : en:Kylo Finds Rey
01:19:37.522 : en:Reunion
01:20:56.893 : en:Resistance Base
01:25:36.172 : en:Rey Imprisoned
01:32:12.568 : en:Resistance Briefing
01:35:29.014 : en:Starkiller Landing
01:36:34.955 : en:Base Infiltration
01:39:28.629 : en:X-Wing Attack
01:41:29.958 : en:Rejoining Rey
01:42:57.504 : en:Into The Oscillator
01:45:00.002 : en:Father and Son
01:50:33.710 : en:Dark Forest
01:53:39.771 : en:Oscillator Breached
01:55:22.165 : en:Forest Duel
01:58:05.453 : en:Cataclysm
02:01:05.591 : en:Made Whole
02:02:32.678 : en:Finding the Master
02:07:07.578 : en:End Credits


Общее
Уникальный идентификатор : 176326994468755428635806807558447165833 (0x84A758078B5B7027AD11F315FEE3F189)
Полное имя : E:\Star Wars Collection (1997 - ...) WEB-DLRip - HEVC 1080p 10 bit 60 FPS\Star Wars The Complete Saga (1977 - 2019) WEB-DLRip - HEVC 1080p 10 bit 60 FPS\Star Wars Episode VIII - The Last Jedi (2017) BDRip - HEVC 1080p 10 bit 60 FPS.mkv
Формат : Matroska
Версия формата : Version 2
Размер файла : 3,62 Гбайт
Продолжительность : 2 ч. 31 м.
Общий поток : 3 411 Кбит/сек
Название фильма : Rip by from DD2D3
Дата кодирования : UTC 2022-08-13 08:04:50
Программа кодирования : mkvmerge v6.9.1 ('Blue Panther') 32bit built on Apr 18 2014 18:15:44
Библиотека кодирования : libebml v1.3.0 + libmatroska v1.4.1
Attachments : poster

Видео
Идентификатор : 1
Формат : HEVC
Формат/Информация : High Efficiency Video Coding
Профиль формата : Main [email protected]@Main
Идентификатор кодека : V_MPEGH/ISO/HEVC
Продолжительность : 2 ч. 31 м.
Битрейт : 2 703 Кбит/сек
Ширина : 1 920 пикселей
Высота : 808 пикселей
Высота оригинала : 804 пикселя
Соотношение сторон : 2,40:1
Соотношение сторон в оригинале : 2,40:1
Режим частоты кадров : Постоянный
Частота кадров : 60,000 кадров/сек
Цветовое пространство : YUV
Субдискретизация насыщенности : 4:2:0
Битовая глубина : 10 бит
Бит/(Пиксели*Кадры) : 0.029
Размер потока : 2,87 Гбайт (79%)
Default : Да
Forced : Нет
Цветовой диапазон : Limited
Основные цвета : BT.709
Характеристики трансфера : BT.709
Коэффициенты матрицы : BT.709

Аудио
Идентификатор : 2
Формат : AC-3
Формат/Информация : Audio Coding 3
Коммерческое название : Dolby Digital
Идентификатор кодека : A_AC3
Продолжительность : 2 ч. 31 м.
Вид битрейта : Постоянный
Битрейт : 640 Кбит/сек
Каналы : 6 каналов
Channel layout : L R C LFE Ls Rs
Частота : 48,0 КГц
Частота кадров : 31,250 кадров/сек (1536 SPF)
Метод сжатия : С потерями
Размер потока : 695 Мбайт (19%)
Заголовок : Дубляж (BD EUR)
Язык : Russian
Service kind : Complete Main
Default : Да
Forced : Нет
Statistics Tags Issue : mkvmerge v22.0.0 ('At The End Of The World') 64-bit 2018-05-01 17:15:39 / mkvmerge v6.9.1 ('Blue Panther') 32bit built on Apr 18 2014 18:15:44 2022-08-13 08:04:50
FromStats_BitRate : 640000
FromStats_Duration : 02:31:51.616000000
FromStats_FrameCount : 284738
FromStats_StreamSize : 728929280

Текст
Идентификатор : 3
Формат : UTF-8
Идентификатор кодека : S_TEXT/UTF8
Идентификатор кодека/Информация : UTF-8 Plain Text
Заголовок : Full
Язык : Russian
Default : Нет
Forced : Нет
Statistics Tags Issue : mkvmerge v22.0.0 ('At The End Of The World') 64-bit 2018-05-01 17:15:39 / mkvmerge v6.9.1 ('Blue Panther') 32bit built on Apr 18 2014 18:15:44 2022-08-13 08:04:50
FromStats_BitRate : 64
FromStats_Duration : 02:20:45.403000000
FromStats_FrameCount : 1580
FromStats_StreamSize : 68516

Меню
00:00:00.000 : :Chapter 01
00:00:18.643 : :Chapter 02
00:01:45.730 : :Chapter 03
00:03:11.816 : :Chapter 04
00:07:43.296 : :Chapter 05
00:12:48.434 : :Chapter 06
00:13:44.573 : :Chapter 07
00:16:29.279 : :Chapter 08
00:19:59.281 : :Chapter 09
00:22:51.369 : :Chapter 10
00:26:04.980 : :Chapter 11
00:27:22.849 : :Chapter 12
00:31:24.757 : :Chapter 13
00:32:54.681 : :Chapter 14
00:35:27.667 : :Chapter 15
00:38:11.497 : :Chapter 16
00:41:53.427 : :Chapter 17
00:44:29.541 : :Chapter 18
00:46:51.475 : :Chapter 19
00:51:41.932 : :Chapter 20
00:53:50.060 : :Chapter 21
00:55:41.504 : :Chapter 22
00:57:39.581 : :Chapter 23
00:59:16.636 : :Chapter 24
01:02:05.847 : :Chapter 25
01:03:07.700 : :Chapter 26
01:05:41.729 : :Chapter 27
01:07:03.477 : :Chapter 28
01:10:25.721 : :Chapter 29
01:13:30.322 : :Chapter 30
01:17:43.450 : :Chapter 31
01:20:53.056 : :Chapter 32
01:24:17.969 : :Chapter 33
01:26:23.219 : :Chapter 34
01:27:59.524 : :Chapter 35
01:30:49.360 : :Chapter 36
01:32:54.568 : :Chapter 37
01:35:53.706 : :Chapter 38
01:37:10.616 : :Chapter 39
01:39:12.863 : :Chapter 40
01:42:07.663 : :Chapter 41
01:45:03.714 : :Chapter 42
01:49:35.694 : :Chapter 43
01:52:20.608 : :Chapter 44
01:56:04.749 : :Chapter 45
01:58:52.083 : :Chapter 46
02:03:11.133 : :Chapter 47
02:06:39.758 : :Chapter 48
02:11:43.604 : :Chapter 49
02:15:12.103 : :Chapter 50
02:20:16.699 : :Chapter 51
02:23:39.694 : :Chapter 52
02:31:51.352 : :Chapter 53


Общее
Уникальный идентификатор : 241371929399040913213523327326293750476 (0xB5968AEB87DCCFCB8E82EE4677D272CC)
Полное имя : E:\Star Wars Collection (1997 - ...) WEB-DLRip - HEVC 1080p 10 bit 60 FPS\Star Wars The Complete Saga (1977 - 2019) WEB-DLRip - HEVC 1080p 10 bit 60 FPS\Star Wars Episode IX - The Rise of Skywalker (2019) WEB-DLRip - HEVC 1080p 10 bit 60 FPS.mkv
Формат : Matroska
Версия формата : Version 2
Размер файла : 2,98 Гбайт
Продолжительность : 2 ч. 16 м.
Общий поток : 3 126 Кбит/сек
Название фильма : Rip by from DD2D3
Дата кодирования : UTC 2022-08-23 08:38:04
Программа кодирования : mkvmerge v6.9.1 ('Blue Panther') 32bit built on Apr 18 2014 18:15:44
Библиотека кодирования : libebml v1.3.0 + libmatroska v1.4.1
Attachments : poster

Видео
Идентификатор : 1
Формат : HEVC
Формат/Информация : High Efficiency Video Coding
Профиль формата : Main [email protected]@Main
Идентификатор кодека : V_MPEGH/ISO/HEVC
Продолжительность : 2 ч. 16 м.
Битрейт : 2 680 Кбит/сек
Ширина : 1 920 пикселей
Высота : 808 пикселей
Высота оригинала : 804 пикселя
Соотношение сторон : 2,40:1
Соотношение сторон в оригинале : 2,40:1
Режим частоты кадров : Постоянный
Частота кадров : 60,000 кадров/сек
Цветовое пространство : YUV
Субдискретизация насыщенности : 4:2:0
Битовая глубина : 10 бит
Бит/(Пиксели*Кадры) : 0.029
Размер потока : 2,55 Гбайт (86%)
Default : Да
Forced : Нет
Цветовой диапазон : Limited
Основные цвета : BT.709
Характеристики трансфера : BT.709
Коэффициенты матрицы : BT.709

Аудио
Идентификатор : 2
Формат : AC-3
Формат/Информация : Audio Coding 3
Коммерческое название : Dolby Digital
Идентификатор кодека : A_AC3
Продолжительность : 2 ч. 16 м.
Вид битрейта : Постоянный
Битрейт : 384 Кбит/сек
Каналы : 6 каналов
Channel layout : L R C LFE Ls Rs
Частота : 48,0 КГц
Частота кадров : 31,250 кадров/сек (1536 SPF)
Метод сжатия : С потерями
Размер потока : 375 Мбайт (12%)
Заголовок : iTunes
Язык : Russian
Service kind : Complete Main
Default : Да
Forced : Да
Statistics Tags Issue : mkvmerge v55.0.0 ('Waiting For Space') 64-bit 2021-03-22 04:10:56 / mkvmerge v6.9.1 ('Blue Panther') 32bit built on Apr 18 2014 18:15:44 2022-08-23 08:38:04
FromStats_BitRate : 384000
FromStats_Duration : 02:15:58.912000000
FromStats_FrameCount : 254966
FromStats_StreamSize : 391627776

Текст
Идентификатор : 3
Формат : UTF-8
Идентификатор кодека : S_TEXT/UTF8
Идентификатор кодека/Информация : UTF-8 Plain Text
Заголовок : Full
Язык : Russian
Default : Нет
Forced : Нет
Statistics Tags Issue : mkvmerge v55.0.0 ('Waiting For Space') 64-bit 2021-03-22 04:10:56 / mkvmerge v6.9.1 ('Blue Panther') 32bit built on Apr 18 2014 18:15:44 2022-08-23 08:38:04
FromStats_BitRate : 60
FromStats_Duration : 02:11:49.320000000
FromStats_FrameCount : 1435
FromStats_StreamSize : 59535


Общее
Уникальный идентификатор : 214893374870275928845121303399095409293 (0xA1AAF5639E5E3F3393BF00CEE9351A8D)
Полное имя : E:\Star Wars Collection (1997 - ...) WEB-DLRip - HEVC 1080p 10 bit 60 FPS\Star Wars The Complete Saga (1977 - 2019) WEB-DLRip - HEVC 1080p 10 bit 60 FPS\Rogue One A Star Wars Story (2016) BDRip - HEVC 1080p 10 bit 60 FPS.mkv
Формат : Matroska
Версия формата : Version 2
Размер файла : 3,30 Гбайт
Продолжительность : 2 ч. 13 м.
Общий поток : 3 530 Кбит/сек
Название фильма : Rip by from DD2D3
Дата кодирования : UTC 2022-08-11 08:17:28
Программа кодирования : mkvmerge v6.9.1 ('Blue Panther') 32bit built on Apr 18 2014 18:15:44
Библиотека кодирования : libebml v1.3.0 + libmatroska v1.4.1
Attachments : poster

Видео
Идентификатор : 1
Формат : HEVC
Формат/Информация : High Efficiency Video Coding
Профиль формата : Main [email protected]@Main
Идентификатор кодека : V_MPEGH/ISO/HEVC
Продолжительность : 2 ч. 13 м.
Битрейт : 2 820 Кбит/сек
Ширина : 1 920 пикселей
Высота : 808 пикселей
Высота оригинала : 804 пикселя
Соотношение сторон : 2,40:1
Соотношение сторон в оригинале : 2,40:1
Режим частоты кадров : Постоянный
Частота кадров : 60,000 кадров/сек
Цветовое пространство : YUV
Субдискретизация насыщенности : 4:2:0
Битовая глубина : 10 бит
Бит/(Пиксели*Кадры) : 0.030
Размер потока : 2,64 Гбайт (80%)
Default : Да
Forced : Нет
Цветовой диапазон : Limited
Основные цвета : BT.709
Характеристики трансфера : BT.709
Коэффициенты матрицы : BT.709

Аудио
Идентификатор : 2
Формат : AC-3
Формат/Информация : Audio Coding 3
Коммерческое название : Dolby Digital
Идентификатор кодека : A_AC3
Продолжительность : 2 ч. 13 м.
Вид битрейта : Постоянный
Битрейт : 640 Кбит/сек
Каналы : 6 каналов
Channel layout : L R C LFE Ls Rs
Частота : 48,0 КГц
Частота кадров : 31,250 кадров/сек (1536 SPF)
Метод сжатия : С потерями
Размер потока : 613 Мбайт (18%)
Заголовок : Дубляж [License]
Язык : Russian
Service kind : Complete Main
Default : Да
Forced : Нет
Statistics Tags Issue : mkvmerge v10.0.0 ('To Drown In You') 64bit 2017-04-05 14:15:07 / mkvmerge v6.9.1 ('Blue Panther') 32bit built on Apr 18 2014 18:15:44 2022-08-11 08:17:28
FromStats_BitRate : 640000
FromStats_Duration : 02:13:57.632000000
FromStats_FrameCount : 251176
FromStats_StreamSize : 643010560

Текст
Идентификатор : 3
Формат : UTF-8
Идентификатор кодека : S_TEXT/UTF8
Идентификатор кодека/Информация : UTF-8 Plain Text
Заголовок : Full
Язык : Russian
Default : Нет
Forced : Нет
Statistics Tags Issue : mkvmerge v10.0.0 ('To Drown In You') 64bit 2017-04-05 14:15:07 / mkvmerge v6.9.1 ('Blue Panther') 32bit built on Apr 18 2014 18:15:44 2022-08-11 08:17:28
FromStats_BitRate : 78
FromStats_Duration : 02:04:04.402000000
FromStats_FrameCount : 1507
FromStats_StreamSize : 73243

Меню
00:00:00.000 : en:"He's Come For Us"
00:02:34.654 : en:Unfinished Business
00:07:46.466 : en:Jyn in Prison
00:08:42.814 : en:Ring of Kafrene
00:11:04.622 : en:An Urgent Message
00:12:21.199 : en:Wobani Prison Break
00:13:41.154 : en:Rebel Interrogation
00:17:19.914 : en:Mission Departure
00:20:09.542 : en:Saw Gerrera
00:21:54.772 : en:Krennic and Tarkin
00:23:47.092 : en:Jyn's Dream
00:24:31.386 : en:Scouting Jedha City
00:26:53.445 : en:Bor Gullet
00:27:46.623 : en:Guardians of The Whills
00:30:37.294 : en:Holy City Ambush
00:33:53.406 : en:"Let them Pass"
00:37:11.271 : en:Saw's Catacombs
00:42:30.089 : en:Galen's Message
00:47:16.125 : en:Jedha Escape
00:51:04.144 : en:Tarkin Commands
00:52:23.724 : en:Race to Eadu
00:55:53.266 : en:Eadu Crash
00:59:48.251 : en:Scouting Eadu
01:02:07.807 : en:Krennic and Galen
01:05:25.505 : en:Attack on Eadu
01:10:24.095 : en:Eadu Aftermath
01:12:49.532 : en:Mustafar
01:16:28.459 : en:Jyn Before the Council
01:19:04.323 : en:"May the Force Be With Us"
01:21:55.160 : en:Rogue One Launches
01:23:25.667 : en:Scarif Gate
01:25:58.987 : en:10 Men Like 100
01:27:34.958 : en:Imperial Inspection
01:29:57.308 : en:Ground Forces
01:31:53.841 : en:The Battle Begins
01:34:18.736 : en:Scrambling the Rebel Fleet
01:36:07.512 : en:Sowing Confusion
01:37:48.237 : en:Rebel Reinforcements
01:40:27.605 : en:Beach Battle
01:42:44.074 : en:Master Switch
01:45:26.779 : en:Stardust
01:47:55.010 : en:Data Vault
01:50:31.416 : en:Sacrifices
01:53:28.885 : en:"We Have the Plans"
01:55:46.272 : en:Final Confrontation
01:59:23.448 : en:Transmission Received
02:01:11.347 : en:Fire When Ready
02:03:15.596 : en:Hope
02:05:42.118 : en:End Credits




Общее
Уникальный идентификатор : 215724283026050563769054743189207712498 (0xA24AFC52FA3337479F7C95BC29DD02F2)
Полное имя : E:\Star Wars Collection (1997 - ...) WEB-DLRip - HEVC 1080p 10 bit 60 FPS\Star Wars The Complete Saga (1977 - 2019) WEB-DLRip - HEVC 1080p 10 bit 60 FPS\Solo A Star Wars Story (2018) [Open Matte] WEB-DLRip - HEVC 1080p 10 bit 60 FPS.mkv
Формат : Matroska
Версия формата : Version 2
Размер файла : 3,60 Гбайт
Продолжительность : 2 ч. 9 м.
Общий поток : 3 987 Кбит/сек
Название фильма : Rip by DD2D3
Дата кодирования : UTC 2022-08-20 17:35:15
Программа кодирования : mkvmerge v6.9.1 ('Blue Panther') 32bit built on Apr 18 2014 18:15:44
Библиотека кодирования : libebml v1.3.0 + libmatroska v1.4.1
Attachments : poster

Видео
Идентификатор : 1
Формат : HEVC
Формат/Информация : High Efficiency Video Coding
Профиль формата : Main [email protected]@Main
Идентификатор кодека : V_MPEGH/ISO/HEVC
Продолжительность : 2 ч. 9 м.
Ширина : 1 920 пикселей
Высота : 1 080 пикселей
Соотношение сторон : 16:9
Режим частоты кадров : Постоянный
Частота кадров : 60,000 кадров/сек
Цветовое пространство : YUV
Субдискретизация насыщенности : 4:2:0
Битовая глубина : 10 бит
Default : Да
Forced : Нет
Цветовой диапазон : Limited
Основные цвета : BT.709
Характеристики трансфера : BT.709
Коэффициенты матрицы : BT.709

Аудио
Идентификатор : 2
Формат : AAC LC
Формат/Информация : Advanced Audio Codec Low Complexity
Идентификатор кодека : A_AAC-2
Продолжительность : 2 ч. 9 м.
Каналы : 2 канала
Channel layout : L R
Частота : 48,0 КГц
Частота кадров : 46,875 кадров/сек (1024 SPF)
Метод сжатия : С потерями
Язык : Russian
Default : Да
Forced : Нет
Statistics Tags Issue : mkvmerge v8.3.0 ('Over the Horizon') 64bit 2021-12-12 17:39:57 / mkvmerge v6.9.1 ('Blue Panther') 32bit built on Apr 18 2014 18:15:44 2022-08-20 17:35:15
FromStats_BitRate : 256000
FromStats_Duration : 02:09:26.058000000
FromStats_FrameCount : 364034
FromStats_StreamSize : 248513878





Скачать Звёздные войны. Сага через торрент https://a.picpig.ru/2022/08/23/Star-Wars-Collection-1997---2019-WEB-DLRip---HEVC-1080p-10-bit-60-FPS.jpg Скачать, смотреть онлайн Звёздные войны. Сага бесплантно в хорошем качестве Описание:Название: Звездные войны: СагаОригинальное название: Star Wars. The Complete SagaГод выхода: 1977-2019Жанр: Фантастика, боевик, ... 9.9 10 13
Info! Золотая раздача, скачанное не засчитывается.
Торрент: Зарегистрирован [2022-08-23 09:49] · скачан: 61 раз
Статус: √ проверено
Размер: 34.29 GB
Как cкачать? Как скачать Звёздные войны. Сага через торрент | UTorrent

% Раздел Тема Автор DL S | L
Сборники на DVD и Сиквелы [DVDrip, WEB-DLRip, HDrip, BDRip] [ 34 GB ] Звездные войны: Сага / Star Wars: The Complete Saga | Дубляж | BDRip-AVC, Дубляж morfyi Скачать
2 | 0
Сборники и Сиквелы (48-60 fps) [ 61.09 GB ] Звездные войны: Сага / Star Wars: The Complete Saga [1977-2015, фантастика, фэнтези, боевик, BDRip 720p, 60fps, Dub- | iTunes | 720p, 60fps, Dub-(1-6 Tiberiumsun69 Скачать
4 | 0
Сборники (HD Video) [ 105.13 GB ] Звездные войны: Сага / Star Wars: The Complete Saga | DUB + MVO + DVO + AVO | 1080p от KORSAR Cthulhu Скачать
1 | 0
Сборники и Сиквелы (48-60 fps) [ 44.96 GB ] Звездные войны: Сага / Star Wars: The Complete Saga [1977-2015, фантастика, фэнтези, боевик, BDRip-AVC, 60fps, Dub- | iTunes | BDRip-AVC, 60fps, Dub-(1-6 Tiberiumsun69 Скачать
2 | 1
Фильмы (Blu-ray, BD-Remux, HDDVD) [ 335.26 GB ] Звездные войны: Сага / Star Wars: The Complete Saga - Полное Коллекционное издание [9-Disc Edition | ези | Blu-ray -Lexx- Скачать
2 | 0
Сборники и Сиквелы (48-60 fps) [ 125.26 GB ] Звездные войны: Сага / Star Wars: The Complete Saga [1977-2015, фантастика, фэнтези, боевик, BDRip 1080p, 60fps, Dub- | iTunes | 1080p, 60fps, Dub-(1-6 Tiberiumsun69 Скачать
4 | 0
Сборники (HD Video) [ 300.32 GB ] Звездные войны: Сага / Star Wars: The Complete Saga | DUB | 1080p Ворон Скачать
1 | 0

28-11-2019 20:33  


Отключить вcю реклaмy на сайте, в т.ч. и в плеере онлайн просмотра!

23-08-2022 12:45 Звёздные войны. Сага Скачать торрент  

Вот это мое почтение автору, спасибо



23-08-2022 14:03 Звёздные войны. Сага Скачать торрент  

Офигенное спасибо, так спасибо (а будут мандалорец, оби и бобба сериалы? У фларров дубляж всего, но у редов Оби ван родной голос)



23-08-2022 14:41 Звёздные войны. Сага Скачать торрент  

На данный момент войны клонов делаю, а там 7 сезонов в разнобой идут, то есть сюжет прыгает



23-08-2022 22:34 Звёздные войны. Сага Скачать торрент  

ну давай все же фильмо-сериалы)))



    Дорогой пользователь! Огромная просьба, поблагодарите релизера, оцените раздачу и оставьте свои комментарий, если Вы скачали Звёздные войны. Сага через торрент бесплатно!!
    Комментировать посты могут только пользователи прошедшие не сложную регистрацию
    Показать сообщения:    


    Звёздные войны. Сага через торрент
    Скачать бесплатно Звёздные войны. Сага
    Звёздные войны. Сага скачать торрент
    Звёздные войны. Сага смотреть онлайн
    Cкачать фильм Звёздные войны. Сага бесплатно
    Звёздные войны. Сага скачать торрент в хорошем качестве
    Звёздные войны. Сага смотреть онлайн бесплатно в хорошем качестве
    Вы не можете начинать темы
    Вы не можете отвечать на сообщения
    Вы не можете редактировать свои сообщения
    Вы не можете удалять свои сообщения
    Вы не можете голосовать в опросах
    Вы не можете прикреплять файлы к сообщениям
    Вы можете скачивать файлы
    Звёздные войны. Сага / Star Wars. The Complete Saga [1977 - 2019, Фантастика, боевик, приключения, WEB-DLRip - HEVC 1080p 10 bit 60 FPS, Дубляж] смотреть онлайн, скачать торрент picoco.icu