Достать ножи: Стеклянная луковица

MVO

Добыча

Дубляж

Уэнсдэй

1 сезон

Тор

Дубляж

13 клиническая

1 сезон

Жестокая ночь

MVO

Одни из нас

1 сезон

Deluxe

pack

Рекомендуем

30

Пиратка

ВАЖНО

ВАЖНО

Ghostwire

Пиратка

jed

RePack

nioh2

RePack

RDR2

RePack

NEED FOR SPEED™ PAYBACK

RePack

скачать торрент

Кинопоиск HD

Острые козырьки 6 сезон

6 сезон

FAR CRY 6

RePack

скачать торрент

Лицензия

скачать торрент

MVO

1

1 сезон

скачать торрент

1 сезон

скачать торрент

Лицензия

  

Дом дракона / House of the Dragon / Сезон: 1 / Серии: 1-10 из 10 (Мигель Сапочник, Грег Яйтанс, Клер Килнер) [2022, Фэнтези, боевик, драма, мелодрама, WEB-DLRip] MVO [LostFilm]

Дом дракона через торрент pb.wtf

Раздают: 4 [ 0.3 KB/s ] Качают: 1 [ 0 KB/s ]
Размер: 7.67 GB | Добавлен: 3 мес. 12 д. назад | Торрент скачан:414 раз
Смотреть онлайн | Скачать | Поддержите нас   

23-08-2022 19:31 Дом дракона Скачать торрент  

Дом дракона | House of the Dragon
«Fire Will Reign»
Год выпуска: 2022
Страна: США
Выпущено: Good Banana, Home Box Office (HBO)
Жанр: Фэнтези, боевик, драма, мелодрама
Продолжительность: ~ 01:00:00 серия
Перевод: Профессиональный (многоголосый, закадровый) | LostFilm
Субтитры: отсутствуют

Режиссер: Мигель Сапочник, Грег Яйтанс, Клер Килнер

rating

В ролях: Пэдди Консидайн, Эмма Д'Арси, Мэтт Смит, Милли Олкок, Ив Бест, Оливия Кук, Рис Иванс, Соноя Мидзуно, Дэвид Хорович, Грэм МакТавиш, Билл Патерсон, Стив Тюссен, Уил Джонсон, Энтони Флэнеган, Эмили Кэри, Эван Митчелл, Гарри Коллетт, Фрэнки Уилсон, Райан Корр, Фабьен Фрэнкел, Джефферсон Холл, Майкл Картер, Дэвид Хаунслоу, Мэтью Нидэм, Гэвин Спокс, Алексис Рабен, Джон МакМиллан, Тео Нейт, Саванна Штейн, Том Глинн-Карни, Бетани Антония, Нина Баркер-Фрэнсис, Хаки Али, Биджан Данешманд, Мартин Портлок, Ханна Флинн, Мария Салливан

Описание: Приквел самого масштабного сериала 2010-х «Игра престолов». История разворачивается за 200 лет до событий саги «Песнь льда и пламени». Таргариены правят Семью Королевствами и находятся на грани гражданской войны. Король Визерис к ужасу подданных объявляет своей наследницей дочь Рейниру. Она должна стать первой женщиной, которая взойдёт на Железный трон, но слишком многим это не по нраву. Судьба королевства висит на волоске.

Качество: WEB-DLRip
Формат: AVI

Видео: 704x352 at 23.976 fps, XviD, ~1700 kbps avg
Аудио: 48 kHz, MP3, 2/0 (L,R) ch, ~128 kbps avg
скриншот  скриншот  скриншот  скриншот  

General
Complete name : House.of.the.Dragon.S01E01.avi
Format : AVI
Format/Info : Audio Video Interleave
File size : 862 MiB
Duration : 1 h 5 min
Overall bit rate : 1 837 kb/s
Writing application : VirtualDubMod 1.5.10.3 (build 2550/release)
Writing library : VirtualDubMod build 2550/release

Video
ID : 0
Format : MPEG-4 Visual
Format profile : Advanced [email protected]
Format settings : BVOP1
Format settings, BVOP : 1
Format settings, QPel : No
Format settings, GMC : No warppoints
Format settings, Matrix : Default (MPEG)
Codec ID : XVID
Codec ID/Hint : XviD
Duration : 1 h 5 min
Bit rate : 1 700 kb/s
Width : 704 pixels
Height : 352 pixels
Display aspect ratio : 2.000
Frame rate : 23.976 (24000/1001) FPS
Original frame rate : 23.976 (23976/1000) FPS
Color space : YUV
Chroma subsampling : 4:2:0
Bit depth : 8 bits
Scan type : Progressive
Compression mode : Lossy
Bits/(Pixel*Frame) : 0.286
Stream size : 798 MiB (93%)
Writing library : XviD 69

Audio
ID : 1
Format : MPEG Audio
Format version : Version 1
Format profile : Layer 3
Format settings : Joint stereo / MS Stereo
Codec ID : 55
Codec ID/Hint : MP3
Duration : 1 h 5 min
Bit rate mode : Constant
Bit rate : 128 kb/s
Channel(s) : 2 channels
Sampling rate : 48.0 kHz
Compression mode : Lossy
Stream size : 60.1 MiB (7%)
Alignment : Aligned on interleaves
Interleave, duration : 42 ms (1.00 video frame)
Interleave, preload duration : 504 ms

Когда раздача ведётся путём добавления новых серий, при каждом добавлении создётся новый торрент. Чтобы начать докачку новой серии, пользователям необходимо сделать следующее:
(1) остановить скачивание,
(2) удалить старый торрент у себя из клиента (старые серии удалять не надо),
(3) скачать новый торрент и запустить его у себя в клиенте вместо старого, при этом указать клиенту путь в старую папку, куда и должно происходить скачивание новых серий.
Ваш клиент при этом должен произвести хеширование (проверку) старой папки (если не производит сам - помогите ему сделать это), и будет докачивать только те серии, которых у вас ещё нет. Старые серии при этом не удаляются, а продолжают раздаваться!
Eсли вы уже удалили старые серии, то предотвратить повторную закачку старых серий можно, отжав галочку в соответсвующих местах при запуске нового торрента. По возможности, желательно не удалять старые серии как можно дольше, чтобы релизёр не столько продолжал раздавать старые серии, а смог сконцентрироваться на новых.




Скачать Дом дракона через торрент https://i7-imageban-ru.translate.goog/out/2022/08/22/8d7152d046a5ad5a1446fca048aa4284.png Скачать, смотреть онлайн Дом дракона бесплантно в хорошем качестве Описание: Приквел самого масштабного сериала 2010-х «Игра престолов». История разворачивается за 200 лет до событий саги «Песнь льда и ... 9.4 10 21
Info! Золотая раздача, скачанное не засчитывается.
Торрент: Зарегистрирован [2022-10-25 15:18] · скачан: 414 раз
Статус: √ проверено
Размер: 7.67 GB
Как cкачать? Как скачать Дом дракона через торрент | UTorrent

% Раздел Тема Автор DL S | L
Игра престолов [ 11.08 GB ] Дом дракона / House of the Dragon / Сезон: 1 / Серии: 1-10 из 10 | Amedia | DLRip-AVC bober100 Скачать
14 | 0
Игра престолов [ 8.8 GB ] Дом дракона / House of the Dragon / Сезон: 1 / Серии: 1-10 из 10 | Amedia | DLRip bober100 Скачать
6 | 0
Игра престолов [ 18.19 GB ] Дом дракона / House of the Dragon / Сезон: 1 / Серии: 1-10 из 10 | LostFilm | 1080p bober100 Скачать
2 | 0
Игра престолов [ 92.6 GB ] Дом дракона / House of the Dragon / Сезон: 1 / Серии: 1-10 из 10 | Amedia | 2160p bober100 Скачать
2 | 0
Игра престолов [ 21.99 GB ] Дом дракона / House of the Dragon / Сезон: 1 / Серии: 1-9 из 10 | Jaskier | 1080p killermax2013 Скачать
1 | 0
Игра престолов [ 42.03 GB ] Дом дракона / House of the Dragon / Сезон: 1 / Серии: 1-10 из 10 | Amedia | 1080p bober100 Скачать
5 | 4
Игра престолов [ 40.38 GB ] Дом дракона / House of the Dragon / Сезон: 1 / Серии: 1-10 из 10 | LostFilm | 1080p bober100 Скачать
3 | 0

28-11-2019 20:33  


Отключить вcю реклaмy на сайте, в т.ч. и в плеере онлайн просмотра!

    Дорогой пользователь! Огромная просьба, поблагодарите релизера, оцените раздачу и оставьте свои комментарий, если Вы скачали Дом дракона через торрент бесплатно!!
    Комментировать посты могут только пользователи прошедшие не сложную регистрацию
    Показать сообщения:    


    Дом дракона через торрент
    Скачать бесплатно Дом дракона
    Дом дракона скачать торрент
    Дом дракона смотреть онлайн
    Cкачать фильм Дом дракона бесплатно
    Дом дракона скачать торрент в хорошем качестве
    Дом дракона смотреть онлайн бесплатно в хорошем качестве
    Вы не можете начинать темы
    Вы не можете отвечать на сообщения
    Вы не можете редактировать свои сообщения
    Вы не можете удалять свои сообщения
    Вы не можете голосовать в опросах
    Вы не можете прикреплять файлы к сообщениям
    Вы можете скачивать файлы
    Дом дракона / House of the Dragon / Сезон: 1 / Серии: 1-10 из 10 [2022, Фэнтези, боевик, драма, мелодрама, WEB-DLRip] MVO [LostFilm] смотреть онлайн, скачать торрент picoco.icu