Доктор Стрэндж

Лицензия

Добыча

Дубляж

Дом дракона

1 сезон

Тор

Дубляж

В эфире

Дубляж

Там, где раки поют

MVO

Властелин колец

1 сезон

GLOBAL

pack

Рекомендуем

30

Пиратка

ВАЖНО

ВАЖНО

Ghostwire

Пиратка

jed

RePack

nioh2

RePack

RDR2

RePack

NEED FOR SPEED™ PAYBACK

RePack

скачать торрент

Кинопоиск HD

Острые козырьки 6 сезон

6 сезон

FAR CRY 6

RePack

скачать торрент

Лицензия

скачать торрент

MVO

1

1 сезон

скачать торрент

1 сезон

скачать торрент

Лицензия

  

Алита: Боевой ангел 3D / Alita: Battle Angel in 3D (Роберт Родригес) [2019 г., фантастика, боевик, триллер, приключения, 3D BDRip 1080p, Дубляж] Анаглиф (Дюбуа) от R.G. HD-Films

Алита: Боевой ангел 3D через торрент pb.wtf

Размер: 7.88 GB | Добавлен: 3 мес. 5 д. назад | Торрент скачан:7 раз
Смотреть онлайн | Скачать   

24-08-2022 08:58 Алита: Боевой ангел 3D Скачать торрент  

Алита: Боевой ангел / Alita: Battle Angel
Год выпуска: 2019
Страна: США
Жанр: фантастика, боевик, триллер, приключения
Продолжительность: 02:01:57
Перевод: Дубляж
Субтитры: Русские (Forced вшитые, full), украинские, английские

Режиссер: Роберт Родригес

Бюджет: $170 000 000
Премьера в мире: 5 февраля 2019

rating

В ролях: Роза Салазар, Кристоф Вальц, Дженнифер Коннелли, Махершала Али, Эд Скрейн, Джеки Эрл Хейли, Кин Джонсон, Хорхе Лендеборг мл., Лана Кондор, Идара Виктор, ...

Описание: Действие фильма происходит в XXVI веке, через 300 лет после Великой войны. Доктор Идо находит останки женщины-киборга. После починки киборг ничего не помнит, но обнаруживает, что в состоянии пользоваться боевыми приемами киборгов. Начинаются поиски утерянных воспоминаний.

Доп. информация: Формат 3D: Анаглиф (Дюбуа)



Качество: 3D BDRip 1080p
Формат: MKV
Видео кодек: H.264
Аудио кодек: AC3
Видео: 1920 x 1080 (16:9), 7524 kbps, 23,976 fps, 0.151 bpp
Аудио#1: Русский / AC3 / 48 KHz / 5.1 ch / 640 Kbps (Дубляж - BD CEE)
Аудио#2: Украинский / AC3 / 48 KHz / 5.1 ch / 448 Kbps (Дубляж - BD CEE)
Аудио#3: Английский / AC3 / 48 KHz / 5.1 ch / 640 Kbps (Original - BD 3D)
Релиз от: Автор рипа: slaventi-69
x264 [info]: using cpu capabilities: MMX2 SSE2Fast SSSE3 SSE4.2 AVX AVX2 FMA3 LZCNT BMI1 BMI2
x264 [info]: profile High, level 4.1
x264 [info]: frame I:1931 Avg QP:13.60 size:166317
x264 [info]: frame P:48465 Avg QP:15.05 size: 72808
x264 [info]: frame B:125044 Avg QP:16.95 size: 24248
x264 [info]: consecutive B-frames: 3.8% 5.9% 14.0% 41.2% 35.1%

Общее
Уникальный идентификатор : 187265860134380443546177904027421441286 (0x8CE217BF14E26BB6070C68EDE4B8FD06)
Полное имя : G:\60 FPS\Alita_Battle.Angel.(2019).3D.(Anaglyph_Dubois).mkv
Формат : Matroska
Версия формата : Version 4
Размер файла : 7,88 Гбайт
Продолжительность : 2 ч. 1 м.
Общий поток : 9255 Кбит/сек
Название фильма : Алита: Боевой ангел / Alita: Battle Angel (2019) in 3D (Anaglyph_Dubois)
Дата кодирования : UTC 2022-08-23 12:28:07
Программа кодирования : mkvmerge v69.0.0 ('Day And Age') 64-bit
Библиотека кодирования : libebml v1.4.2 + libmatroska v1.6.4

Видео
Идентификатор : 1
Формат : AVC
Формат/Информация : Advanced Video Codec
Профиль формата : [email protected]
Настройки формата : CABAC / 4 Ref Frames
Параметр CABAC формата : Да
Параметр RefFrames формата : 4 кадра
Идентификатор кодека : V_MPEG4/ISO/AVC
Продолжительность : 2 ч. 1 м.
Битрейт : 7524 Кбит/сек
Ширина : 1920 пикселей
Высота : 1080 пикселей
Соотношение сторон : 16:9
Режим частоты кадров : Постоянный
Частота кадров : 23,976 (24000/1001) кадра/сек
Цветовое пространство : YUV
Субдискретизация насыщенности : 4:2:0
Битовая глубина : 8 бит
Тип развёртки : Прогрессивная
Бит/(Пиксели*Кадры) : 0.151
Размер потока : 6,41 Гбайт (81%)
Заголовок : slaventi-69 ( R.G. HD-Films ) 3Д (Anaglyph_Dubois)
Библиотека кодирования : x264 core 130 r2273 b3065e6
Настройки программы : cabac=1 / ref=4 / deblock=1:-2:-2 / analyse=0x3:0x133 / me=umh / subme=9 / psy=1 / psy_rd=1.00:0.00 / mixed_ref=1 / me_range=32 / chroma_me=1 / trellis=2 / 8x8dct=1 / cqm=0 / deadzone=21,11 / fast_pskip=0 / chroma_qp_offset=-2 / threads=8 / lookahead_threads=4 / sliced_threads=0 / nr=0 / decimate=1 / interlaced=0 / bluray_compat=0 / constrained_intra=0 / bframes=4 / b_pyramid=2 / b_adapt=2 / b_bias=0 / direct=1 / weightb=1 / open_gop=0 / weightp=2 / keyint=600 / keyint_min=23 / scenecut=40 / intra_refresh=0 / rc=crf / mbtree=0 / crf=19.5 / qcomp=0.60 / qpmin=0 / qpmax=69 / qpstep=4 / ip_ratio=1.40 / pb_ratio=1.30 / aq=1:1.00
Язык : English
Default : Да
Forced : Нет

Аудио #1
Идентификатор : 2
Формат : AC-3
Формат/Информация : Audio Coding 3
Коммерческое название : Dolby Digital
Идентификатор кодека : A_AC3
Продолжительность : 2 ч. 1 м.
Вид битрейта : Постоянный
Битрейт : 640 Кбит/сек
Каналы : 6 каналов
Channel layout : L R C LFE Ls Rs
Частота : 48,0 КГц
Частота кадров : 31,250 кадров/сек (1536 SPF)
Битовая глубина : 16 бит
Метод сжатия : С потерями
Размер потока : 558 Мбайт (7%)
Заголовок : Дубляж (BD CEE)
Язык : Russian
ServiceKind/String : Complete Main
Default : Да
Forced : Нет

Аудио #2
Идентификатор : 3
Формат : AC-3
Формат/Информация : Audio Coding 3
Коммерческое название : Dolby Digital
Идентификатор кодека : A_AC3
Продолжительность : 2 ч. 1 м.
Вид битрейта : Постоянный
Битрейт : 448 Кбит/сек
Каналы : 6 каналов
Channel layout : L R C LFE Ls Rs
Частота : 48,0 КГц
Частота кадров : 31,250 кадров/сек (1536 SPF)
Битовая глубина : 16 бит
Метод сжатия : С потерями
Размер потока : 391 Мбайт (5%)
Заголовок : Дубляж (BD CEE)
Язык : Ukrainian
ServiceKind/String : Complete Main
Default : Нет
Forced : Нет

Аудио #3
Идентификатор : 4
Формат : AC-3
Формат/Информация : Audio Coding 3
Коммерческое название : Dolby Digital
Идентификатор кодека : A_AC3
Продолжительность : 2 ч. 1 м.
Вид битрейта : Постоянный
Битрейт : 640 Кбит/сек
Каналы : 6 каналов
Channel layout : L R C LFE Ls Rs
Частота : 48,0 КГц
Частота кадров : 31,250 кадров/сек (1536 SPF)
Битовая глубина : 16 бит
Метод сжатия : С потерями
Размер потока : 558 Мбайт (7%)
Заголовок : Original (BD 3D)
Язык : English
ServiceKind/String : Complete Main
Default : Нет
Forced : Нет

Текст #1
Идентификатор : 5
Формат : UTF-8
Идентификатор кодека : S_TEXT/UTF8
Идентификатор кодека/Информация : UTF-8 Plain Text
Продолжительность : 2 ч. 1 м.
Битрейт : 50 бит/сек
ElementCount : 1264
Размер потока : 44,6 Кбайт (0%)
Заголовок : Полные
Язык : Russian
Default : Нет
Forced : Нет

Текст #2
Идентификатор : 6
Формат : UTF-8
Идентификатор кодека : S_TEXT/UTF8
Идентификатор кодека/Информация : UTF-8 Plain Text
Продолжительность : 1 ч. 56 м.
Битрейт : 0 бит/сек
ElementCount : 6
Размер потока : 246 байт (0%)
Заголовок : Форсированные
Язык : Ukrainian
Default : Нет
Forced : Нет

Текст #3
Идентификатор : 7
Формат : UTF-8
Идентификатор кодека : S_TEXT/UTF8
Идентификатор кодека/Информация : UTF-8 Plain Text
Продолжительность : 2 ч. 1 м.
Битрейт : 48 бит/сек
ElementCount : 1254
Размер потока : 43,4 Кбайт (0%)
Заголовок : Полные
Язык : Ukrainian
Default : Нет
Forced : Нет

Текст #4
Идентификатор : 8
Формат : UTF-8
Идентификатор кодека : S_TEXT/UTF8
Идентификатор кодека/Информация : UTF-8 Plain Text
Продолжительность : 1 ч. 55 м.
Битрейт : 41 бит/сек
ElementCount : 1347
Размер потока : 34,9 Кбайт (0%)
Заголовок : Full
Язык : English
Default : Нет
Forced : Нет

Текст #5
Идентификатор : 9
Формат : UTF-8
Идентификатор кодека : S_TEXT/UTF8
Идентификатор кодека/Информация : UTF-8 Plain Text
Продолжительность : 1 ч. 57 м.
Битрейт : 46 бит/сек
ElementCount : 1584
Размер потока : 39,6 Кбайт (0%)
Заголовок : SDH
Язык : English
Default : Нет
Forced : Нет

Меню
00:00:00.000 : :1
00:03:28.625 : :2
00:07:51.678 : :3
00:10:07.981 : :4
00:13:06.701 : :5
00:15:06.739 : :6
00:18:04.540 : :7
00:22:58.710 : :8
00:25:35.325 : :9
00:31:40.897 : :10
00:33:29.214 : :11
00:36:32.815 : :12
00:38:30.891 : :13
00:42:05.481 : :14
00:45:58.213 : :15
00:48:31.449 : :16
00:52:57.007 : :17
00:55:14.351 : :18
01:00:39.760 : :19
01:02:56.563 : :20
01:05:16.786 : :21
01:10:50.496 : :22
01:13:37.287 : :23
01:16:35.215 : :24
01:18:52.226 : :25
01:22:48.296 : :26
01:24:55.340 : :27
01:28:25.216 : :28
01:33:18.551 : :29
01:36:08.761 : :30
01:41:54.690 : :31
01:45:23.442 : :32
01:48:16.488 : :33
01:51:43.654 : :34
01:54:43.667 : :35
01:56:51.503 : :36

Просьба к переливающим на другие сайты, в оформлении указывайте пожалуйста авторство группы R.G. HD-Films



Скачать Алита: Боевой ангел 3D через торрент https://i120.fastpic.org/big/2022/0824/ce/f11c7321e955248c4ecf5821297ce5ce.jpg Скачать, смотреть онлайн Алита: Боевой ангел 3D бесплантно в хорошем качестве Описание: Действие фильма происходит в XXVI веке, через 300 лет после Великой войны. Доктор Идо находит останки женщины-киборга. После ... 10 10 3
Торрент: Зарегистрирован [2022-08-24 08:58] · скачан: 7 раз
Статус: √ проверено
Размер: 7.88 GB
Как cкачать? Как скачать Алита: Боевой ангел 3D через торрент | UTorrent

% Раздел Тема Автор DL S | L
3D Фильмы [ 19.4 GB ] Алита: Боевой ангел в 3Д / Alita: Battle Angel 3D | | 1080p serega768 Скачать
1 | 0
3D Фильмы [ 12.55 GB ] Алита: Боевой ангел 3Д / Alita: Battle Angel 3D | Лицензия | 1080p bober100 Скачать
1 | 0
3D Фильмы [ 14.53 GB ] Алита: Боевой ангел 3Д / Alita: Battle Angel 3D | Лицензия | 1080p bober100 Скачать
1 | 0
Фильмы (Blu-ray, BD-Remux, HDDVD) [ 38.45 GB ] Алита: Боевой ангел / Alita: Battle Angel | Лицензия | BD Remux 1080p bober100 Скачать
1 | 0

28-11-2019 20:33  


Отключить вcю реклaмy на сайте, в т.ч. и в плеере онлайн просмотра!

25-08-2022 03:24 Алита: Боевой ангел 3D Скачать торрент  

офигенный



    Дорогой пользователь! Огромная просьба, поблагодарите релизера, оцените раздачу и оставьте свои комментарий, если Вы скачали Алита: Боевой ангел 3D через торрент бесплатно!!
    Комментировать посты могут только пользователи прошедшие не сложную регистрацию
    Показать сообщения:    


    Алита: Боевой ангел 3D через торрент
    Скачать бесплатно Алита: Боевой ангел 3D
    Алита: Боевой ангел 3D скачать торрент
    Алита: Боевой ангел 3D смотреть онлайн
    Cкачать фильм Алита: Боевой ангел 3D бесплатно
    Алита: Боевой ангел 3D скачать торрент в хорошем качестве
    Алита: Боевой ангел 3D смотреть онлайн бесплатно в хорошем качестве
    Вы не можете начинать темы
    Вы не можете отвечать на сообщения
    Вы не можете редактировать свои сообщения
    Вы не можете удалять свои сообщения
    Вы не можете голосовать в опросах
    Вы не можете прикреплять файлы к сообщениям
    Вы можете скачивать файлы
    Алита: Боевой ангел 3D / Alita: Battle Angel in 3D [2019 г., фантастика, боевик, триллер, приключения, 3D BDRip 1080p, Дубляж] Анаглиф от R.G. HD-Films смотреть онлайн, скачать торрент picoco.icu