Лицензия

MVO

1

1 сезон

Лицензия

Лицензия

13

MVO

1 сезон

Deluxe Edition

pack

Рекомендуем

30

Repack

ВАЖНО

ВАЖНО

Ghostwire

RePack

jed

RePack

fifa19

RePack

RDR2

RePack

NEED FOR SPEED™ PAYBACK

RePack

Кинопоиск HD

 Острые козырьки 6 сезон

6 сезон

FAR CRY 6

RePack

Лицензия

MVO

1

1 сезон

1 сезон

Лицензия

  

Дом дракона / House of the Dragon / Сезон: 1 / Серии: 1-5 из 10 (Мигель Сапочник, Грег Яйтанс, Клер Килнер) [2022, Фэнтези, боевик, драма, мелодрама, WEB-DL (HEVC)1080p] 2x[MVO] [Jaskier, Iyuno-SDI Group] + [DUB] + 2x[Ukr MVO]

Дом дракона через торрент pb.wtf

Раздают: 2 [ 658 KB/s ] Качают: 5 [ 0 KB/s ]
Размер: 12.83 GB | Добавлен: 2 д. 14 ч. назад | Торрент скачан:18 раз
Смотреть онлайн Дом дракона | Скачать   

24-08-2022 09:46 Дом дракона Скачать торрент  

Дом дракона / House of the Dragon
Год выхода: 2022
Жанр: Фэнтези, боевик, драма, мелодрама
Страна: США
Продолжительность: 1x ~01:00:00
Перевод #1: Профессиональный (многоголосый, закадровый) - Jaskier
Перевод #2: Профессиональный (многоголосый, закадровый) - Iyuno-SDI Group
Перевод #3: Профессиональный (дублированный) - "Кравец-Рекордз" по заказу Amedia
Перевод #4: Профессиональный (многоголосый, закадровый) - Цікава Ідея - Украинский
Перевод #5: Профессиональный (многоголосый, закадровый) - DniproFilm - Украинский
Субтитры: английские, русские

Режиссер: Мигель Сапочник, Грег Яйтанс, Клер Килнер

В ролях: Пэдди Консидайн, Эмма Д'Арси, Мэтт Смит, Милли Олкок, Ив Бест, Оливия Кук, Рис Иванс, Соноя Мидзуно, Дэвид Хорович, Грэм МакТавиш, Билл Патерсон, Стив Тюссен, Уил Джонсон, Энтони Флэнеган, Эмили Кэри, Эван Митчелл, Гарри Коллетт, Фрэнки Уилсон, Райан Корр, Фабьен Фрэнкел, Джефферсон Холл, Майкл Картер, Дэвид Хаунслоу, Мэтью Нидэм, Гэвин Спокс, Алексис Рабен, Джон МакМиллан, Тео Нейт, Саванна Штейн, Том Глинн-Карни, Бетани Антония, Нина Баркер-Фрэнсис, Хаки Али, Биджан Данешманд, Мартин Портлок, Ханна Флинн, Мария Салливан

Описание: Приквел самого масштабного сериала 2010-х «Игра престолов». История разворачивается за 200 лет до событий саги «Песнь льда и пламени». Таргариены правят Семью Королевствами и находятся на грани гражданской войны. Король Визерис к ужасу подданных объявляет своей наследницей дочь Рейниру. Она должна стать первой женщиной, которая взойдёт на Железный трон, но слишком многим это не по нраву. Судьба королевства висит на волоске.

rating

Качество: WEB-DL (HEVC)1080p
Формат: MKV
Видео: HEVC , 1920x960 at 23.976 fps, ~3 000 kbps avg
Аудио #1 Rus: 48 kHz, AC3, 6 ch, 448 kbps | Jaskier
Аудио #2 Rus: 48 kHz, AC3, 6 ch, 384 kbps | Iyuno-SDI Group
Аудио #3 Rus: 48 kHz, AC3, 6 ch, 384 kbps | "Кравец-Рекордз" по заказу Amedia
Аудио #4 Ukr: 48 kHz, AC3, 6 ch, 512 kbps | Цікава Ідея
Аудио #5 Ukr: 48 kHz, AC3, 6 ch, 384 kbps | DniproFilm
Аудио #6 Eng: 48 kHz, E-AC3, 6 ch, 768 kbps | оригинал
скриншот  скриншот  скриншот  скриншот  скриншот  
General
Unique ID : 210205275221962030990203679832562161990 (0x9E24103B19EC52BFA80F43FBF93F5946)
Complete name : G:\House of the Dragon.S01.WEB-DLRip(HEVC)1080p.xz\House of the Dragon.S01E01.WEB-DL (HEVC)1080p.2x[MVO] (Jaskier, SDI), [DUB], 2x[Ukr].xz.mkv
Format : Matroska
Format version : Version 4
File size : 2.74 GiB
Duration : 1 h 5 min
Overall bit rate : 5 976 kb/s
Movie name : House of the Dragon.S01E01.WEB-DL (HEVC)1080p.2x[MVO] (Jaskier, SDI), [DUB], 2x[Ukr].xz
Encoded date : UTC 2022-08-24 09:16:47
Writing application : mkvmerge v6.1.0 ('Old Devil') built on Mar 2 2013 14:32:37
Writing library : libebml v1.3.0 + libmatroska v1.4.0 / Lavf58.76.100
Cover : Yes
Attachments : cover.jpg

Video
ID : 1
Format : HEVC
Format/Info : High Efficiency Video Coding
Format profile : Main [email protected]@Main
Codec ID : V_MPEGH/ISO/HEVC
Duration : 1 h 5 min
Bit rate : 2 977 kb/s
Width : 1 920 pixels
Height : 960 pixels
Display aspect ratio : 2.000
Frame rate mode : Constant
Frame rate : 23.976 (24000/1001) FPS
Color space : YUV
Chroma subsampling : 4:2:0 (Type 0)
Bit depth : 10 bits
Bits/(Pixel*Frame) : 0.067
Stream size : 1.36 GiB (50%)
Title : House of the Dragon.S01E01.WEB-DL (HEVC)1080p.2x[MVO] (Jaskier, SDI), [DUB], 2x[Ukr].xz
Default : Yes
Forced : No
Color range : Limited
Color primaries : BT.709
Transfer characteristics : BT.709
Matrix coefficients : BT.709
Duration_Source : General_Duration

Audio #1
ID : 2
Format : AC-3
Format/Info : Audio Coding 3
Commercial name : Dolby Digital
Codec ID : A_AC3
Duration : 1 h 5 min
Bit rate mode : Constant
Bit rate : 448 kb/s
Channel(s) : 6 channels
Channel layout : L R C LFE Ls Rs
Sampling rate : 48.0 kHz
Frame rate : 31.250 FPS (1536 SPF)
Compression mode : Lossy
Delay relative to video : 24 ms
Stream size : 210 MiB (7%)
Title : Jaskier
Language : Russian
Service kind : Complete Main
Default : No
Forced : No
Duration_Source : General_Duration

Audio #2
ID : 3
Format : AC-3
Format/Info : Audio Coding 3
Commercial name : Dolby Digital
Codec ID : A_AC3
Duration : 1 h 5 min
Bit rate mode : Constant
Bit rate : 384 kb/s
Channel(s) : 6 channels
Channel layout : L R C LFE Ls Rs
Sampling rate : 48.0 kHz
Frame rate : 31.250 FPS (1536 SPF)
Compression mode : Lossy
Delay relative to video : 24 ms
Stream size : 180 MiB (6%)
Title : SDI
Language : Russian
Service kind : Complete Main
Default : No
Forced : No
Duration_Source : General_Duration

Audio #3
ID : 4
Format : AC-3
Format/Info : Audio Coding 3
Commercial name : Dolby Digital
Codec ID : A_AC3
Duration : 1 h 5 min
Bit rate mode : Constant
Bit rate : 384 kb/s
Channel(s) : 6 channels
Channel layout : L R C LFE Ls Rs
Sampling rate : 48.0 kHz
Frame rate : 31.250 FPS (1536 SPF)
Compression mode : Lossy
Delay relative to video : 24 ms
Stream size : 180 MiB (6%)
Title : DUB
Language : Russian
Service kind : Complete Main
Default : No
Forced : No
Duration_Source : General_Duration

Audio #4
ID : 5
Format : AC-3
Format/Info : Audio Coding 3
Commercial name : Dolby Digital
Codec ID : A_AC3
Duration : 1 h 5 min
Bit rate mode : Constant
Bit rate : 512 kb/s
Channel(s) : 6 channels
Channel layout : L R C LFE Ls Rs
Sampling rate : 48.0 kHz
Frame rate : 31.250 FPS (1536 SPF)
Compression mode : Lossy
Delay relative to video : 24 ms
Stream size : 240 MiB (9%)
Title : Цікава Ідея
Language : Ukrainian
Service kind : Complete Main
Default : No
Forced : No
Statistics Tags Issue : mkvmerge v69.0.0 ('Day And Age') 64-bit 2022-08-23 10:25:41 / mkvmerge v6.1.0 ('Old Devil') built on Mar 2 2013 14:32:37 2022-08-24 09:16:47
FromStats_BitRate : 512000
FromStats_Duration : 01:05:36.448000000
FromStats_FrameCount : 123014
FromStats_StreamSize : 251932672
Duration_Source : General_Duration

Audio #5
ID : 6
Format : AC-3
Format/Info : Audio Coding 3
Commercial name : Dolby Digital
Codec ID : A_AC3
Duration : 1 h 5 min
Bit rate mode : Constant
Bit rate : 384 kb/s
Channel(s) : 6 channels
Channel layout : L R C LFE Ls Rs
Sampling rate : 48.0 kHz
Frame rate : 31.250 FPS (1536 SPF)
Compression mode : Lossy
Delay relative to video : 8 ms
Stream size : 180 MiB (6%)
Title : DniproFilm
Language : Ukrainian
Service kind : Complete Main
Default : No
Forced : No
Statistics Tags Issue : mkvmerge v69.0.0 ('Day And Age') 64-bit 2022-08-23 10:25:41 / mkvmerge v6.1.0 ('Old Devil') built on Mar 2 2013 14:32:37 2022-08-24 09:16:47
FromStats_BitRate : 384000
FromStats_Duration : 01:05:36.704000000
FromStats_FrameCount : 123022
FromStats_StreamSize : 188961792
Duration_Source : General_Duration

Audio #6
ID : 7
Format : E-AC-3 JOC
Format/Info : Enhanced AC-3 with Joint Object Coding
Commercial name : Dolby Digital Plus with Dolby Atmos
Codec ID : A_EAC3
Duration : 1 h 5 min
Bit rate mode : Constant
Bit rate : 768 kb/s
Channel(s) : 6 channels
Channel layout : L R C LFE Ls Rs
Sampling rate : 48.0 kHz
Frame rate : 31.250 FPS (1536 SPF)
Compression mode : Lossy
Stream size : 360 MiB (13%)
Language : English
Service kind : Complete Main
Default : No
Forced : No
Statistics Tags Issue : mkvmerge v70.0.0 ('Caught A Lite Sneeze') 64-bit 2022-08-22 11:30:03 / mkvmerge v6.1.0 ('Old Devil') built on Mar 2 2013 14:32:37 2022-08-24 09:16:47
FromStats_BitRate : 768000
FromStats_Duration : 01:05:35.456000000
FromStats_FrameCount : 122983
FromStats_StreamSize : 377803776
Complexity index : 16
Number of dynamic objects : 15
Bed channel count : 1 channel
Bed channel configuration : LFE
Duration_Source : General_Duration

Text #1
ID : 8
Format : UTF-8
Codec ID : S_TEXT/UTF8
Codec ID/Info : UTF-8 Plain Text
Title : forced
Language : Russian
Default : No
Forced : No

Text #2
ID : 9
Format : UTF-8
Codec ID : S_TEXT/UTF8
Codec ID/Info : UTF-8 Plain Text
Title : full
Language : Russian
Default : No
Forced : No

Text #3
ID : 10
Format : UTF-8
Codec ID : S_TEXT/UTF8
Codec ID/Info : UTF-8 Plain Text
Title : full HBO
Language : Russian
Default : No
Forced : No

Text #4
ID : 11
Format : UTF-8
Codec ID : S_TEXT/UTF8
Codec ID/Info : UTF-8 Plain Text
Language : English
Default : No
Forced : No

Text #5
ID : 12
Format : UTF-8
Codec ID : S_TEXT/UTF8
Codec ID/Info : UTF-8 Plain Text
Title : SDH
Language : English
Default : No
Forced : No

Menu
00:00:00.000 : :Chapter 1
01:03:26.136 : :Credits
Когда раздача ведётся путём добавления новых серий, при каждом добавлении создётся новый торрент. Чтобы начать докачку новой серии, пользователям необходимо сделать следующее:

(1) остановить скачивание,

(2) удалить старый торрент у себя из клиента (старые серии удалять не надо),

(3) скачать новый торрент и запустить его у себя в клиенте вместо старого, при этом указать клиенту путь в старую папку, куда и должно происходить скачивание новых серий.

Ваш клиент при этом должен произвести хеширование (проверку) старой папки (если не производит сам - помогите ему сделать это), и будет докачивать только те серии, которых у вас ещё нет. Старые серии при этом не удаляются, а продолжают раздаваться!

Eсли вы уже удалили старые серии, то предотвратить повторную закачку старых серий можно, отжав галочку в соответсвующих местах при запуске нового торрента. По возможности, желательно не удалять старые серии как можно дольше, чтобы релизер не столько продолжал раздавать старые серии, а смог сконцентрироваться на новых.



Скачать Дом дракона через торрент https://i120.fastpic.org/big/2022/0824/00/a36b0ece0e75d8a997bfd82ce63da200.jpg Скачать, смотреть онлайн Дом дракона бесплантно в хорошем качестве Описание: Приквел самого масштабного сериала 2010-х «Игра престолов». История разворачивается за 200 лет до событий саги «Песнь льда и ... 8.8 10 23
Торрент: Зарегистрирован [2022-09-22 14:25] · скачан: 18 раз
Статус: √ проверено
Размер: 12.83 GB
Как cкачать? Как скачать Дом дракона через торрент | UTorrent

28-11-2019 20:33  

Отключить вcю реклaмy на сайте

    Дорогой пользователь! Огромная просьба, поблагодарите релизера, оцените раздачу и оставьте свои комментарий, если Вы скачали Дом дракона через торрент бесплатно!!
    Комментировать посты могут только пользователи прошедшие не сложную регистрацию
    Показать сообщения:    


    Дом дракона через торрент
    Скачать бесплатно Дом дракона
    Дом дракона скачать торрент
    Дом дракона смотреть онлайн
    Cкачать фильм Дом дракона бесплатно
    Дом дракона скачать торрент в хорошем качестве
    Дом дракона смотреть онлайн бесплатно в хорошем качестве
    Вы не можете начинать темы
    Вы не можете отвечать на сообщения
    Вы не можете редактировать свои сообщения
    Вы не можете удалять свои сообщения
    Вы не можете голосовать в опросах
    Вы не можете прикреплять файлы к сообщениям
    Вы можете скачивать файлы