Достать ножи: Стеклянная луковица

MVO

Добыча

Дубляж

Уэнсдэй

1 сезон

Тор

Дубляж

13 клиническая

1 сезон

Жестокая ночь

MVO

Одни из нас

1 сезон

Deluxe

pack

Рекомендуем

30

Пиратка

ВАЖНО

ВАЖНО

Ghostwire

Пиратка

jed

RePack

nioh2

RePack

RDR2

RePack

NEED FOR SPEED™ PAYBACK

RePack

скачать торрент

Кинопоиск HD

Острые козырьки 6 сезон

6 сезон

FAR CRY 6

RePack

скачать торрент

Лицензия

скачать торрент

MVO

1

1 сезон

скачать торрент

1 сезон

скачать торрент

Лицензия

  

Дом дракона / House of the Dragon / Сезон: 1 / Серии: 1-10 из 10 (Мигель Сапочник, Грег Яйтанс, Клер Килнер) [2022, Фэнтези, боевик, драма, мелодрама, WEB-DLRip-AVC] Дубляж [Кравец / Amedia] +MVO [Iyuno]

Дом дракона через торрент pb.wtf

Раздают: 11 [ 96 KB/s ]
Размер: 11.08 GB | Добавлен: 3 мес. 11 д. назад | Торрент скачан:553 раза
Смотреть онлайн | Скачать | Поддержите нас   

24-08-2022 23:34 Дом дракона Скачать торрент  

Дом дракона | House of the Dragon
«Fire Will Reign»
Год выпуска: 2022
Страна: США
Выпущено: 1:26 Pictures, Home Box Office (HBO)
Жанр: Фэнтези, боевик, драма, мелодрама
Продолжительность: ~ 01:00:00 серия
Перевод:
Дублированный | "Кравец" по заказу Amedia
Профессиональный (многоголосый) | Iyuno
Субтитры: Русские (Forced, Full)

Режиссер: Мигель Сапочник, Грег Яйтанс, Клер Килнер

rating

В ролях: Пэдди Консидайн, Эмма Д'Арси, Мэтт Смит, Милли Олкок, Ив Бест, Оливия Кук, Рис Иванс, Соноя Мидзуно, Дэвид Хорович, Грэм МакТавиш, Билл Патерсон, Стив Тюссен, Уил Джонсон, Энтони Флэнеган, Эмили Кэри, Эван Митчелл, Гарри Коллетт, Фрэнки Уилсон, Райан Корр, Фабьен Фрэнкел, Джефферсон Холл, Майкл Картер, Дэвид Хаунслоу, Мэтью Нидэм, Гэвин Спокс, Алексис Рабен, Джон МакМиллан, Тео Нейт, Саванна Штейн, Том Глинн-Карни, Бетани Антония, Нина Баркер-Фрэнсис, Хаки Али, Биджан Данешманд, Мартин Портлок, Ханна Флинн, Мария Салливан

Описание: Приквел самого масштабного сериала 2010-х «Игра престолов». История разворачивается за 200 лет до событий саги «Песнь льда и пламени». Таргариены правят Семью Королевствами и находятся на грани гражданской войны. Король Визерис к ужасу подданных объявляет своей наследницей дочь Рейниру. Она должна стать первой женщиной, которая взойдёт на Железный трон, но слишком многим это не по нраву. Судьба королевства висит на волоске.

Качество: WEB-DLRip-AVC
Формат: MKV

Видео: AVC, 1024x512 (2,000), 1800 kbps (0.143 b/px), 23.976 fps
Аудио №1: AC3, 48 kHz, 6 ch, 384 kbps | "Кравец"
Аудио №2: AC3, 48 kHz, 6 ch, 384 kbps | Iyuno
скриншот  скриншот  скриншот  скриншот  

Общее
Уникальный идентификатор : 5527477769739248150403254950928087495 (0x4288DB1DF5627903852A67D729479C7)
Полное имя : D:фильмы и сериалыHouse.of.the.Dragon.S01.WEB-DLRip-AVCHouse.of.the.Dragon.S01E01.WEB-DLRip-AVC.TR.mkv
Формат : Matroska
Версия формата : Version 4
Размер файла : 1,18 Гбайт
Продолжительность : 1 ч. 5 м.
Общий поток : 2 570 Кбит/сек
Дата кодирования : UTC 2022-08-24 09:57:22
Программа кодирования : mkvmerge v35.0.0 ('All The Love In The World') 64-bit
Библиотека кодирования : libebml v1.3.9 + libmatroska v1.5.2

Видео
Идентификатор : 1
Формат : AVC
Формат/Информация : Advanced Video Codec
Профиль формата : [email protected]
Настройки формата : CABAC / 9 Ref Frames
Параметр CABAC формата : Да
Параметр RefFrames формата : 9 кадров
Идентификатор кодека : V_MPEG4/ISO/AVC
Продолжительность : 1 ч. 5 м.
Битрейт : 1 800 Кбит/сек
Ширина : 1 024 пикселя
Высота : 512 пикселей
Соотношение сторон : 2,000
Режим частоты кадров : Постоянный
Частота кадров : 23,976 (24000/1001) кадра/сек
Цветовое пространство : YUV
Субдискретизация насыщенности : 4:2:0
Битовая глубина : 8 бит
Тип развёртки : Прогрессивная
Бит/(Пиксели*Кадры) : 0.143
Размер потока : 845 Мбайт (70%)
Заголовок : TRIAX2009
Библиотека кодирования : x264 core 146 r2538 121396c
Настройки программы : cabac=1 / ref=9 / deblock=1:-2:-1 / analyse=0x3:0x113 / me=umh / subme=10 / psy=1 / psy_rd=1.00:0.15 / mixed_ref=1 / me_range=32 / chroma_me=1 / trellis=2 / 8x8dct=1 / cqm=0 / deadzone=21,11 / fast_pskip=0 / chroma_qp_offset=-3 / threads=30 / lookahead_threads=4 / sliced_threads=0 / nr=0 / decimate=1 / interlaced=0 / bluray_compat=0 / constrained_intra=0 / bframes=8 / b_pyramid=2 / b_adapt=2 / b_bias=0 / direct=3 / weightb=1 / open_gop=0 / weightp=2 / keyint=240 / keyint_min=24 / scenecut=40 / intra_refresh=0 / rc_lookahead=40 / rc=2pass / mbtree=0 / bitrate=1800 / ratetol=1.0 / qcomp=0.60 / qpmin=0 / qpmax=69 / qpstep=4 / cplxblur=20.0 / qblur=0.5 / vbv_maxrate=14000 / vbv_bufsize=14000 / nal_hrd=none / filler=0 / ip_ratio=1.40 / pb_ratio=1.30 / aq=1:1.00
Default : Да
Forced : Нет

Аудио #1
Идентификатор : 2
Формат : AC-3
Формат/Информация : Audio Coding 3
Коммерческое название : Dolby Digital
Идентификатор кодека : A_AC3
Продолжительность : 1 ч. 5 м.
Вид битрейта : Постоянный
Битрейт : 384 Кбит/сек
Каналы : 6 каналов
Channel layout : L R C LFE Ls Rs
Частота : 48,0 КГц
Частота кадров : 31,250 кадров/сек (1536 SPF)
Метод сжатия : С потерями
Размер потока : 180 Мбайт (15%)
Заголовок : Дубляж
Язык : Russian
Service kind : Complete Main
Default : Да
Forced : Нет

Аудио #2
Идентификатор : 3
Формат : AC-3
Формат/Информация : Audio Coding 3
Коммерческое название : Dolby Digital
Идентификатор кодека : A_AC3
Продолжительность : 1 ч. 5 м.
Вид битрейта : Постоянный
Битрейт : 384 Кбит/сек
Каналы : 6 каналов
Channel layout : L R C LFE Ls Rs
Частота : 48,0 КГц
Частота кадров : 31,250 кадров/сек (1536 SPF)
Метод сжатия : С потерями
Размер потока : 180 Мбайт (15%)
Заголовок : MVO
Язык : Russian
Service kind : Complete Main
Default : Нет
Forced : Нет

Текст #1
Идентификатор : 4
Формат : UTF-8
Идентификатор кодека : S_TEXT/UTF8
Идентификатор кодека/Информация : UTF-8 Plain Text
Продолжительность : 40 м. 31 с.
Битрейт : 4 бит/сек
Count of elements : 27
Размер потока : 1,40 Кбайт (0%)
Заголовок : Forced
Язык : Russian
Default : Да
Forced : Нет

Текст #2
Идентификатор : 5
Формат : UTF-8
Идентификатор кодека : S_TEXT/UTF8
Идентификатор кодека/Информация : UTF-8 Plain Text
Продолжительность : 1 ч. 2 м.
Битрейт : 84 бит/сек
Count of elements : 609
Размер потока : 38,7 Кбайт (0%)
Заголовок : Amedia
Язык : Russian
Default : Нет
Forced : Нет

Текст #3
Идентификатор : 6
Формат : UTF-8
Идентификатор кодека : S_TEXT/UTF8
Идентификатор кодека/Информация : UTF-8 Plain Text
Продолжительность : 1 ч. 2 м.
Битрейт : 85 бит/сек
Count of elements : 620
Размер потока : 39,3 Кбайт (0%)
Заголовок : HBO
Язык : Russian
Default : Нет
Forced : Нет

Когда раздача ведётся путём добавления новых серий, при каждом добавлении создётся новый торрент. Чтобы начать докачку новой серии, пользователям необходимо сделать следующее:
(1) остановить скачивание,
(2) удалить старый торрент у себя из клиента (старые серии удалять не надо),
(3) скачать новый торрент и запустить его у себя в клиенте вместо старого, при этом указать клиенту путь в старую папку, куда и должно происходить скачивание новых серий.
Ваш клиент при этом должен произвести хеширование (проверку) старой папки (если не производит сам - помогите ему сделать это), и будет докачивать только те серии, которых у вас ещё нет. Старые серии при этом не удаляются, а продолжают раздаваться!
Eсли вы уже удалили старые серии, то предотвратить повторную закачку старых серий можно, отжав галочку в соответсвующих местах при запуске нового торрента. По возможности, желательно не удалять старые серии как можно дольше, чтобы релизёр не столько продолжал раздавать старые серии, а смог сконцентрироваться на новых.




Скачать Дом дракона через торрент https://i7-imageban-ru.translate.goog/out/2022/08/22/8d7152d046a5ad5a1446fca048aa4284.png Скачать, смотреть онлайн Дом дракона бесплантно в хорошем качестве Описание: Приквел самого масштабного сериала 2010-х «Игра престолов». История разворачивается за 200 лет до событий саги «Песнь льда и ... 9.3 10 31
Info! Золотая раздача, скачанное не засчитывается.
Торрент: Зарегистрирован [2022-10-26 12:16] · скачан: 553 раз
Статус: √ проверено
Размер: 11.08 GB
Как cкачать? Как скачать Дом дракона через торрент | UTorrent

% Раздел Тема Автор DL S | L
Игра престолов [ 8.8 GB ] Дом дракона / House of the Dragon / Сезон: 1 / Серии: 1-10 из 10 | Amedia | DLRip bober100 Скачать
6 | 1
Игра престолов [ 18.19 GB ] Дом дракона / House of the Dragon / Сезон: 1 / Серии: 1-10 из 10 | LostFilm | 1080p bober100 Скачать
3 | 0
Игра престолов [ 92.6 GB ] Дом дракона / House of the Dragon / Сезон: 1 / Серии: 1-10 из 10 | Amedia | 2160p bober100 Скачать
3 | 0
Игра престолов [ 21.99 GB ] Дом дракона / House of the Dragon / Сезон: 1 / Серии: 1-9 из 10 | Jaskier | 1080p killermax2013 Скачать
1 | 0
Игра престолов [ 42.03 GB ] Дом дракона / House of the Dragon / Сезон: 1 / Серии: 1-10 из 10 | Amedia | 1080p bober100 Скачать
5 | 4
Игра престолов [ 40.38 GB ] Дом дракона / House of the Dragon / Сезон: 1 / Серии: 1-10 из 10 | LostFilm | 1080p bober100 Скачать
3 | 0
Игра престолов [ 7.67 GB ] Дом дракона / House of the Dragon / Сезон: 1 / Серии: 1-10 из 10 | LostFilm | DLRip bober100 Скачать
5 | 1



Последний раз редактировалось: bober100 (2022-10-26 12:16), всего редактировалось 6 раз(а)

28-11-2019 20:33  


Отключить вcю реклaмy на сайте, в т.ч. и в плеере онлайн просмотра!

13-09-2022 19:29 Дом дракона Скачать торрент  

посмотрю и оценю!!!



31-10-2022 17:30 Дом дракона Скачать торрент  

Очень слабый .
Содержание пустое, какими то нелогичными скачками. Персонажи плоские, поверхностные. Актеры в массе своей не тянут, кастинг говно. На Игру Престолов даже рядом не тянут. Видно что денег пожалели и на декорации и на сценаристов. Рейтинг завышен.
За раздачу поблагодарил.



03-11-2022 14:11 Дом дракона Скачать торрент  

Интересно! Это пролог перед войной и танцем драконов. Недостатки имеются, мрачность, но в целом получилось на уровне ИП. После него смотрю ИП и первый сезон (который особенно ценится фанатиками) показался мне унылым г...!



11-11-2022 18:32 Дом дракона Скачать торрент  

Ferrari писал(а):

Интересно! Это пролог перед войной и танцем драконов. Недостатки имеются, мрачность, но в целом получилось на уровне ИП. После него смотрю ИП и первый сезон (который особенно ценится фанатиками) показался мне унылым г...!

Что за бред ты написал? Дом Дракона во всем слаб, диалоги пустые, действие грубо говоря происходят в двух комнатах и немножко на улице , все рожают и трахаются и конец сериала. Этот сериал снимали по сценариям женщин с леватским толком, где куча бездарных негров, порно, и тупые диалоги с противоречивыми действиями героев.



    Дорогой пользователь! Огромная просьба, поблагодарите релизера, оцените раздачу и оставьте свои комментарий, если Вы скачали Дом дракона через торрент бесплатно!!
    Комментировать посты могут только пользователи прошедшие не сложную регистрацию
    Показать сообщения:    


    Дом дракона через торрент
    Скачать бесплатно Дом дракона
    Дом дракона скачать торрент
    Дом дракона смотреть онлайн
    Cкачать фильм Дом дракона бесплатно
    Дом дракона скачать торрент в хорошем качестве
    Дом дракона смотреть онлайн бесплатно в хорошем качестве
    Вы не можете начинать темы
    Вы не можете отвечать на сообщения
    Вы не можете редактировать свои сообщения
    Вы не можете удалять свои сообщения
    Вы не можете голосовать в опросах
    Вы не можете прикреплять файлы к сообщениям
    Вы можете скачивать файлы
    Дом дракона / House of the Dragon / Сезон: 1 / Серии: 1-10 из 10 [2022, Фэнтези, боевик, драма, мелодрама, WEB-DLRip-AVC] Дубляж [Кравец / Amedia] +MVO [Iyuno] смотреть онлайн, скачать торрент picoco.icu