Доктор Стрэндж

Лицензия

Добыча

Дубляж

Уэнсдэй

1 сезон

Тор

Дубляж

В эфире

Дубляж

Там, где раки поют

MVO

Властелин колец

1 сезон

Deluxe

pack

Рекомендуем

30

Пиратка

ВАЖНО

ВАЖНО

Ghostwire

Пиратка

jed

RePack

nioh2

RePack

RDR2

RePack

NEED FOR SPEED™ PAYBACK

RePack

скачать торрент

Кинопоиск HD

Острые козырьки 6 сезон

6 сезон

FAR CRY 6

RePack

скачать торрент

Лицензия

скачать торрент

MVO

1

1 сезон

скачать торрент

1 сезон

скачать торрент

Лицензия

  

Базз Лайтер / Lightyear (Энгус МакЛэйн) [2022, Мультфильм, фантастика, боевик, драма, приключения, семейный, UHD BDRemux 2160p] 2xDUB [Cinema Tone Production, Red Head Sound] +2xMVO [Jaskier, TVShows]

Базз Лайтер через торрент pb.wtf

Размер: 36.84 GB | Добавлен: 3 мес. 13 д. назад | Торрент скачан:32 раза
| Скачать   

25-08-2022 03:23 Базз Лайтер Скачать торрент  

Базз Лайтер
Lightyear

Год выпуска: 2022
Страна: США
Студия: Pixar, Pixar Animation Studios, Walt Disney Pictures
Жанр: Мультфильм, фантастика, боевик, драма, приключения, семейный
Продолжительность: 01:45:05
Перевод(ы):
#1: Дублированный | Cinema Tone Production, Казахстан
#2: Дублированный | Red Head Sound
#3: Профессиональный многоголосый | Jaskier
#4: Профессиональный многоголосый | TVShows
Субтитры: Русские (Forced, 2 x full), английские

Режиссер: Энгус МакЛэйн

rating

В ролях: Крис Эванс, Кеке Палмер, Питер Сон, Тайка Вайтити, Дэйл Соулс, Джеймс Бролин, Узо Адуба, Мэри МаДональд-Льюис, Исайя Уитлок мл., Энгус МакЛэйн

Описание: Базз Лайтер, космический рейнджер из Звездного Командования, проведя годы, пытаясь вернуться домой, он сталкивается с армией безжалостных роботов под командованием Зурга, которые пытаются украсть его источник топлива.

Качество: UHD BDRemux 2160p
Формат: MKV

Видео: 3840x2160 at 23.976 fps, MPEG-H HEVC HDR ~ 44400 kbps avg
Аудио #01: 48 kHz, AC3, 2.0, 192 Kbps | Дублированный | Cinema Tone Production, Казахстан | RUS |
Аудио #02: 48 kHz, AC3, 5.1, 640 Kbps | Дублированный | Red Head Sound | RUS |
Аудио #03: 48 kHz, AC3, 5.1, 384 Kbps | Профессиональный многоголосый | Jaskier | RUS |
Аудио #04: 48 kHz, AC3, 2.1, 192 Kbps | Профессиональный многоголосый | TVShows | RUS |
Аудио #05: 48 kHz, TrueHD, 7.1, 3648 Kbps | Оригинал | ENG |
Аудио #05: 48 kHz, AC3, 5.1, 640 Kbps | Оригинал | ENG |
скриншот  скриншот  скриншот  скриншот  скриншот  скриншот  

General
Unique ID : 51165016237283181232946803269752707965 (0x267E061064B982500E03A79E9289DB7D)
Complete name : F:VideoLightyear.2022.BDREMUX.2160p.HDR.seleZen.mkv
Format : Matroska
Format version : Version 4
File size : 36.8 GiB
Duration : 1 h 45 min
Overall bit rate mode : Variable
Overall bit rate : 50.2 Mb/s
Movie name : Lightyear 2022 from seleZen
Encoded date : UTC 2022-08-25 02:03:53
Writing application : mkvmerge v59.0.0 ('Shining Star') 64-bit
Writing library : libebml v1.4.2 + libmatroska v1.6.4

Video
ID : 1
Format : HEVC
Format/Info : High Efficiency Video Coding
Format profile : Main [email protected]@High
HDR format : SMPTE ST 2086, HDR10 compatible
Codec ID : V_MPEGH/ISO/HEVC
Duration : 1 h 45 min
Bit rate : 44.4 Mb/s
Width : 3 840 pixels
Height : 2 160 pixels
Display aspect ratio : 16:9
Frame rate mode : Constant
Frame rate : 23.976 (24000/1001) FPS
Color space : YUV
Chroma subsampling : 4:2:0 (Type 2)
Bit depth : 10 bits
Bits/(Pixel*Frame) : 0.223
Stream size : 32.6 GiB (89%)
Writing library : ATEME Titan File 3.9.6 (4.9.6.2)
Language : English
Default : Yes
Forced : No
Color range : Limited
Color primaries : BT.2020
Transfer characteristics : PQ
Matrix coefficients : BT.2020 non-constant
Mastering display color pri : BT.2020
Mastering display luminance : min: 0.0050 cd/m2, max: 1000 cd/m2

Audio #1
ID : 2
Format : AC-3
Format/Info : Audio Coding 3
Commercial name : Dolby Digital
Codec ID : A_AC3
Duration : 1 h 45 min
Bit rate mode : Constant
Bit rate : 192 kb/s
Channel(s) : 2 channels
Channel layout : L R
Sampling rate : 48.0 kHz
Frame rate : 31.250 FPS (1536 SPF)
Compression mode : Lossy
Stream size : 144 MiB (0%)
Title : Дубляж [Cinema Tone Production]
Language : Russian
Service kind : Complete Main
Default : Yes
Forced : Yes

Audio #2
ID : 3
Format : AC-3
Format/Info : Audio Coding 3
Commercial name : Dolby Digital
Codec ID : A_AC3
Duration : 1 h 45 min
Bit rate mode : Constant
Bit rate : 640 kb/s
Channel(s) : 6 channels
Channel layout : L R C LFE Ls Rs
Sampling rate : 48.0 kHz
Frame rate : 31.250 FPS (1536 SPF)
Compression mode : Lossy
Stream size : 481 MiB (1%)
Title : Дубляж [Red Head Sound]
Language : Russian
Service kind : Complete Main
Default : No
Forced : No

Audio #3
ID : 4
Format : AC-3
Format/Info : Audio Coding 3
Commercial name : Dolby Digital
Codec ID : A_AC3
Duration : 1 h 45 min
Bit rate mode : Constant
Bit rate : 384 kb/s
Channel(s) : 6 channels
Channel layout : L R C LFE Ls Rs
Sampling rate : 48.0 kHz
Frame rate : 31.250 FPS (1536 SPF)
Compression mode : Lossy
Stream size : 289 MiB (1%)
Title : MVO [Jaskier]
Language : Russian
Service kind : Complete Main
Default : No
Forced : No

Audio #4
ID : 5
Format : AC-3
Format/Info : Audio Coding 3
Commercial name : Dolby Digital
Codec ID : A_AC3
Duration : 1 h 45 min
Bit rate mode : Constant
Bit rate : 192 kb/s
Channel(s) : 2 channels
Channel layout : L R
Sampling rate : 48.0 kHz
Frame rate : 31.250 FPS (1536 SPF)
Compression mode : Lossy
Stream size : 144 MiB (0%)
Title : MVO [TVShows]
Language : Russian
Service kind : Complete Main
Default : No
Forced : No

Audio #5
ID : 6
Format : MLP FBA 16-ch
Format/Info : Meridian Lossless Packing FBA with 16-channel presentation
Commercial name : Dolby TrueHD with Dolby Atmos
Codec ID : A_TRUEHD
Duration : 1 h 45 min
Bit rate mode : Variable
Bit rate : 3 648 kb/s
Maximum bit rate : 4 437 kb/s
Channel(s) : 8 channels
Channel layout : L R C LFE Ls Rs Lb Rb
Sampling rate : 48.0 kHz
Frame rate : 1 200.000 FPS (40 SPF)
Compression mode : Lossless
Stream size : 2.68 GiB (7%)
Title : Original
Language : English
Default : No
Forced : No
Number of dynamic objects : 13
Bed channel count : 1 channel
Bed channel configuration : LFE

Audio #6
ID : 7
Format : AC-3
Format/Info : Audio Coding 3
Commercial name : Dolby Digital
Codec ID : A_AC3
Duration : 1 h 45 min
Bit rate mode : Constant
Bit rate : 640 kb/s
Channel(s) : 6 channels
Channel layout : L R C LFE Ls Rs
Sampling rate : 48.0 kHz
Frame rate : 31.250 FPS (1536 SPF)
Compression mode : Lossy
Stream size : 481 MiB (1%)
Language : English
Service kind : Complete Main
Default : No
Forced : No

Text #1
ID : 8
Format : UTF-8
Codec ID : S_TEXT/UTF8
Codec ID/Info : UTF-8 Plain Text
Duration : 1 h 33 min
Bit rate : 0 b/s
Frame rate : 0.002 FPS
Count of elements : 9
Stream size : 592 Bytes (0%)
Title : Forced
Language : Russian
Default : No
Forced : No

Text #2
ID : 9
Format : UTF-8
Codec ID : S_TEXT/UTF8
Codec ID/Info : UTF-8 Plain Text
Duration : 1 h 42 min
Bit rate : 90 b/s
Frame rate : 0.252 FPS
Count of elements : 1546
Stream size : 68.0 KiB (0%)
Title : Full [Official]
Language : Russian
Default : No
Forced : No

Text #3
ID : 10
Format : UTF-8
Codec ID : S_TEXT/UTF8
Codec ID/Info : UTF-8 Plain Text
Duration : 1 h 43 min
Bit rate : 105 b/s
Frame rate : 0.171 FPS
Count of elements : 1057
Stream size : 79.8 KiB (0%)
Title : Full v.2
Language : Russian
Default : No
Forced : No

Text #4
ID : 11
Format : UTF-8
Codec ID : S_TEXT/UTF8
Codec ID/Info : UTF-8 Plain Text
Duration : 1 h 42 min
Bit rate : 63 b/s
Frame rate : 0.272 FPS
Count of elements : 1667
Stream size : 47.5 KiB (0%)
Title : Full
Language : English
Default : No
Forced : No

Text #5
ID : 12
Format : UTF-8
Codec ID : S_TEXT/UTF8
Codec ID/Info : UTF-8 Plain Text
Duration : 1 h 44 min
Bit rate : 76 b/s
Frame rate : 0.330 FPS
Count of elements : 2076
Stream size : 58.3 KiB (0%)
Title : SDH
Language : English
Default : No
Forced : No

Menu
00:00:00.000 : Глава 01
00:04:43.742 : Глава 02
00:06:48.324 : Глава 03
00:08:13.118 : Глава 04
00:09:33.740 : Глава 05
00:11:58.384 : Глава 06
00:15:27.176 : Глава 07
00:18:05.042 : Глава 08
00:20:40.698 : Глава 09
00:22:34.394 : Глава 10
00:24:37.017 : Глава 11
00:25:41.873 : Глава 12
00:27:01.244 : Глава 13
00:30:53.268 : Глава 14
00:32:02.837 : Глава 15
00:33:32.927 : Глава 16
00:34:23.311 : Глава 17
00:36:56.798 : Глава 18
00:39:14.185 : Глава 19
00:41:55.596 : Глава 20
00:45:29.226 : Глава 21
00:50:28.942 : Глава 22
00:51:37.928 : Глава 23
00:54:23.093 : Глава 24
00:57:55.346 : Глава 25
01:02:11.436 : Глава 26
01:04:26.320 : Глава 27
01:07:35.843 : Глава 28
01:09:15.693 : Глава 29
01:10:32.770 : Глава 30
01:11:25.572 : Глава 31
01:15:37.824 : Глава 32
01:16:45.392 : Глава 33
01:17:44.076 : Глава 34
01:25:18.988 : Глава 35
01:27:10.683 : Глава 36
01:29:00.960 : Глава 37
01:30:42.186 : Глава 38
01:33:45.619 : Глава 39
01:36:02.381 : Глава 40
01:43:35.500 : Глава 41




Скачать Базз Лайтер через торрент https://i4-imageban-ru.translate.goog/out/2022/08/25/9ed463c04a1fd7bcc877519a22a1a56a.jpg Скачать, смотреть онлайн Базз Лайтер бесплантно в хорошем качестве Описание: Базз Лайтер, космический рейнджер из Звездного Командования, проведя годы, пытаясь вернуться домой, он сталкивается с армией ... 10 10 2
Торрент: Зарегистрирован [2022-08-25 03:23] · скачан: 32 раз
Статус: √ проверено
Размер: 36.84 GB
Как cкачать? Как скачать Базз Лайтер через торрент | UTorrent

% Раздел Тема Автор DL S | L
Зарубежные Мультфильмы (WEB-DL 720p, 1080p) [ 7.34 GB ] Базз Лайтер / Lightyear | Jaskier | 1080p bober100 Скачать
7 | 0
Мультфильмы (48-60 fps) [ 4.66 GB ] Базз Лайтер / Lightyear | Дубляж | DLRip 720p / 60 FPS slaventi-69 Скачать
3 | 0
Зарубежные Мультфильмы (BDRip 1080p, 720p, Blu-ray, BD-Remux) [ 4.53 GB ] Базз Лайтер / Lightyear | Jaskier | 720p bober100 Скачать
6 | 0
Мультфильмы (48-60 fps) [ 3.59 GB ] Базз Лайтер / Lightyear | Дубляж | DLRip 720p / 60 FPS slaventi-69 Скачать
2 | 0
Иностранные мультфильмы [ 1.75 GB ] Базз Лайтер / Lightyear | Jaskier | DLRip bober100 Скачать
2 | 1

28-11-2019 20:33  


Отключить вcю реклaмy на сайте, в т.ч. и в плеере онлайн просмотра!

    Дорогой пользователь! Огромная просьба, поблагодарите релизера, оцените раздачу и оставьте свои комментарий, если Вы скачали Базз Лайтер через торрент бесплатно!!
    Комментировать посты могут только пользователи прошедшие не сложную регистрацию
    Показать сообщения:    


    Базз Лайтер через торрент
    Скачать бесплатно Базз Лайтер
    Базз Лайтер скачать торрент
    Базз Лайтер смотреть онлайн
    Cкачать фильм Базз Лайтер бесплатно
    Базз Лайтер скачать торрент в хорошем качестве
    Базз Лайтер смотреть онлайн бесплатно в хорошем качестве
    Вы не можете начинать темы
    Вы не можете отвечать на сообщения
    Вы не можете редактировать свои сообщения
    Вы не можете удалять свои сообщения
    Вы не можете голосовать в опросах
    Вы не можете прикреплять файлы к сообщениям
    Вы можете скачивать файлы
    Базз Лайтер / Lightyear [2022, Мультфильм, фантастика, боевик, драма, приключения, семейный, UHD BDRemux 2160p] 2xDUB [Cinema Tone Production, Red Head Sound] +2xMVO [Jaskier, TVShows] смотреть онлайн, скачать торрент picoco.icu