Доктор Стрэндж

Лицензия

Добыча

Дубляж

Уэнсдэй

1 сезон

Тор

Дубляж

В эфире

Дубляж

Там, где раки поют

MVO

Властелин колец

1 сезон

Deluxe

pack

Рекомендуем

30

Пиратка

ВАЖНО

ВАЖНО

Ghostwire

Пиратка

jed

RePack

nioh2

RePack

RDR2

RePack

NEED FOR SPEED™ PAYBACK

RePack

скачать торрент

Кинопоиск HD

Острые козырьки 6 сезон

6 сезон

FAR CRY 6

RePack

скачать торрент

Лицензия

скачать торрент

MVO

1

1 сезон

скачать торрент

1 сезон

скачать торрент

Лицензия

  

Голодные игры: Сойка-пересмешница. Часть I 3D / The Hunger Games: Mockingjay - Part 1 in 3D (Френсис Лоуренс) [2014 г., Фантастика, Триллер, Приключения, 3D BDRip 1080p, Дубляж] Анаглиф (Дюбуа) от R.G. HD-Films

Голодные игры: Сойка-пересмешница. Часть I 3D через торрент pb.wtf

Размер: 6.74 GB | Добавлен: 3 мес. 11 д. назад | Торрент скачан:1 раз
Смотреть онлайн | Скачать   

25-08-2022 11:18 Голодные игры: Сойка-пересмешница. Часть I 3D Скачать торрент  

Голодные игры: Сойка-пересмешница. Часть I / The Hunger Games: Mockingjay - Part 1
Год выпуска: 2014
Страна: США
Жанр: Фантастика, Триллер, Приключения
Продолжительность: 02:02:52
Перевод: Дубляж
Субтитры: русские

Режиссер: Френсис Лоуренс

Бюджет: $125 000 000
Премьера в мире: 10 ноября 2014

rating

В ролях: Дженнифер Лоуренс, Лиам Хемсворт, Джош Хатчерсон, Джулианна Мур, Филип Сеймур Хоффман, Дональд Сазерленд, Вуди Харрельсон, Элизабет Бэнкс, Натали Дормер, Сэм Клафлин

Описание: 75-ые Голодные игры изменили все. Китнисс нарушила правила, и непоколебимое до той поры деспотичное правление Капитолия пошатнулось. У людей появилась надежда, и ее символ — Сойка-пересмешница. Теперь, чтобы освободить захваченного в плен Пита и защитить своих близких, Китнисс придется сражаться в настоящих битвах и стать еще сильнее, чем на арене игр.


Доп. информация: Формат 3D: Анаглиф (Дюбуа)



Качество: 3D BDRip 1080p
Формат: MKV
Видео кодек: H.264
Аудио кодек: AC3
Видео: 1920 x 1080 (16:9), 6374 kbps, 23,976 fps, 0.128 bpp
Аудио#1: Русский / AC3 / 48 KHz / 5.1 ch / 640 Kbps (Дубляж - BD Rus)
Аудио#2: Украинский / AC3 / 48 KHz / 2 ch / 192 Kbps (Дубляж - Line) (моно)
Аудио#3: Английский / AC3 / 48 KHz / 5.1 ch / 640 Kbps (Original - BD 3D)
Релиз от: Автор рипа: slaventi-69
x264 [info]: using cpu capabilities: MMX2 SSE2Fast SSSE3 SSE4.2 AVX AVX2 FMA3 LZCNT BMI1 BMI2
x264 [info]: profile High, level 4.1
x264 [info]: frame I:1047 Avg QP: 9.60 size:134216
x264 [info]: frame P:46577 Avg QP:11.17 size: 60332
x264 [info]: frame B:129133 Avg QP:13.15 size: 22635
x264 [info]: consecutive B-frames: 2.0% 3.5% 15.3% 44.9% 34.3%


Общее
Уникальный идентификатор : 77346289272398733957380426761437739452 (0x3A305A7C55A6753E1EE86C33F98079BC)
Полное имя : G:\60 FPS\The.Hunger.Games_Mockingjay.Part.1.(2014).3D.(Anaglyph_Dubois).mkv
Формат : Matroska
Версия формата : Version 4
Размер файла : 6,74 Гбайт
Продолжительность : 2 ч. 2 м.
Общий поток : 7848 Кбит/сек
Название фильма : Голодные игры: Сойка-пересмешница. Часть I / The Hunger Games: Mockingjay - Part 1 (2014) in 3D (Anaglyph_Dubois)
Дата кодирования : UTC 2022-08-25 10:42:02
Программа кодирования : mkvmerge v69.0.0 ('Day And Age') 64-bit
Библиотека кодирования : libebml v1.4.2 + libmatroska v1.6.4

Видео
Идентификатор : 1
Формат : AVC
Формат/Информация : Advanced Video Codec
Профиль формата : [email protected]
MultiView_Count : 2
MultiView_Layout : Anaglyph (cyan/red)
Настройки формата : CABAC / 4 Ref Frames
Параметр CABAC формата : Да
Параметр RefFrames формата : 4 кадра
Идентификатор кодека : V_MPEG4/ISO/AVC
Продолжительность : 2 ч. 2 м.
Битрейт : 6374 Кбит/сек
Ширина : 1920 пикселей
Высота : 1080 пикселей
Соотношение сторон : 16:9
Режим частоты кадров : Постоянный
Частота кадров : 23,976 (24000/1001) кадра/сек
Цветовое пространство : YUV
Субдискретизация насыщенности : 4:2:0
Битовая глубина : 8 бит
Тип развёртки : Прогрессивная
Бит/(Пиксели*Кадры) : 0.128
Размер потока : 5,47 Гбайт (81%)
Заголовок : slaventi-69 ( R.G. HD-Films ) 3Д (Anaglyph_Dubois)
Библиотека кодирования : x264 core 130 r2273 b3065e6
Настройки программы : cabac=1 / ref=4 / deblock=1:-3:-3 / analyse=0x3:0x133 / me=umh / subme=9 / psy=1 / psy_rd=1.00:0.00 / mixed_ref=1 / me_range=32 / chroma_me=1 / trellis=2 / 8x8dct=1 / cqm=0 / deadzone=21,11 / fast_pskip=0 / chroma_qp_offset=-2 / threads=8 / lookahead_threads=4 / sliced_threads=0 / nr=0 / decimate=1 / interlaced=0 / bluray_compat=0 / constrained_intra=0 / bframes=4 / b_pyramid=2 / b_adapt=2 / b_bias=0 / direct=1 / weightb=1 / open_gop=0 / weightp=2 / keyint=600 / keyint_min=23 / scenecut=40 / intra_refresh=0 / rc=crf / mbtree=0 / crf=18.5 / qcomp=0.60 / qpmin=0 / qpmax=69 / qpstep=4 / ip_ratio=1.40 / pb_ratio=1.30 / aq=1:1.00
Язык : English
Default : Да
Forced : Нет

Аудио #1
Идентификатор : 2
Формат : AC-3
Формат/Информация : Audio Coding 3
Коммерческое название : Dolby Digital
Идентификатор кодека : A_AC3
Продолжительность : 2 ч. 2 м.
Вид битрейта : Постоянный
Битрейт : 640 Кбит/сек
Каналы : 6 каналов
Channel layout : L R C LFE Ls Rs
Частота : 48,0 КГц
Частота кадров : 31,250 кадров/сек (1536 SPF)
Битовая глубина : 16 бит
Метод сжатия : С потерями
Размер потока : 562 Мбайт (8%)
Заголовок : Дубляж - BD Rus
Язык : Russian
ServiceKind/String : Complete Main
Default : Да
Forced : Нет

Аудио #2
Идентификатор : 3
Формат : AC-3
Формат/Информация : Audio Coding 3
Коммерческое название : Dolby Digital
Идентификатор кодека : A_AC3
Продолжительность : 2 ч. 2 м.
Вид битрейта : Постоянный
Битрейт : 192 Кбит/сек
Каналы : 2 канала
Channel layout : L R
Частота : 48,0 КГц
Частота кадров : 31,250 кадров/сек (1536 SPF)
Битовая глубина : 16 бит
Метод сжатия : С потерями
Размер потока : 169 Мбайт (2%)
Заголовок : Дубляж - Line (моно)
Язык : Ukrainian
ServiceKind/String : Complete Main
Default : Нет
Forced : Нет

Аудио #3
Идентификатор : 4
Формат : AC-3
Формат/Информация : Audio Coding 3
Коммерческое название : Dolby Digital
Идентификатор кодека : A_AC3
Продолжительность : 2 ч. 2 м.
Вид битрейта : Постоянный
Битрейт : 640 Кбит/сек
Каналы : 6 каналов
Channel layout : L R C LFE Ls Rs
Частота : 48,0 КГц
Частота кадров : 31,250 кадров/сек (1536 SPF)
Битовая глубина : 16 бит
Метод сжатия : С потерями
Размер потока : 562 Мбайт (8%)
Заголовок : Original
Язык : English
ServiceKind/String : Complete Main
Default : Нет
Forced : Нет

Текст
Идентификатор : 5
Формат : UTF-8
Идентификатор кодека : S_TEXT/UTF8
Идентификатор кодека/Информация : UTF-8 Plain Text
Продолжительность : 1 ч. 49 м.
Битрейт : 79 бит/сек
ElementCount : 1244
Размер потока : 63,6 Кбайт (0%)
Заголовок : Full
Язык : Russian
Default : Нет
Forced : Нет

Меню
00:00:00.000 : :1
00:09:46.920 : :2
00:17:53.030 : :3
00:29:53.375 : :4
00:39:12.725 : :5
00:46:49.598 : :6
00:56:33.765 : :7
01:02:17.776 : :8
01:12:06.739 : :9
01:24:44.079 : :10
01:29:50.260 : :11
01:42:44.158 : :12

Просьба к переливающим на другие сайты, в оформлении указывайте пожалуйста авторство группы R.G. HD-Films



Скачать Голодные игры: Сойка-пересмешница. Часть I 3D через торрент https://i.postimg.cc/W1KFPzkQ/e7eb035c74e4f3f1d141a038675dd726.png Скачать, смотреть онлайн Голодные игры: Сойка-пересмешница. Часть I 3D бесплантно в хорошем качестве Описание: 75-ые Голодные игры изменили все. Китнисс нарушила правила, и непоколебимое до той поры деспотичное правление Капитолия ... 5 10 1
Торрент: Зарегистрирован [2022-08-25 11:18] · скачан: 1 раз
Статус: √ проверено
Размер: 6.74 GB
Как cкачать? Как скачать Голодные игры: Сойка-пересмешница. Часть I 3D через торрент | UTorrent

% Раздел Тема Автор DL S | L
3D Фильмы [ 10.89 GB ] Голодные игры: Сойка-пересмешница. Часть I в 3Д / The Hunger Games: Mockingjay - Part 1 3D | кальная стереопара | 1080p serega768 Скачать
2 | 0

28-11-2019 20:33  


Отключить вcю реклaмy на сайте, в т.ч. и в плеере онлайн просмотра!

    Дорогой пользователь! Огромная просьба, поблагодарите релизера, оцените раздачу и оставьте свои комментарий, если Вы скачали Голодные игры: Сойка-пересмешница. Часть I 3D через торрент бесплатно!!
    Комментировать посты могут только пользователи прошедшие не сложную регистрацию
    Показать сообщения:    


    Голодные игры: Сойка-пересмешница. Часть I 3D через торрент
    Скачать бесплатно Голодные игры: Сойка-пересмешница. Часть I 3D
    Голодные игры: Сойка-пересмешница. Часть I 3D скачать торрент
    Голодные игры: Сойка-пересмешница. Часть I 3D смотреть онлайн
    Cкачать фильм Голодные игры: Сойка-пересмешница. Часть I 3D бесплатно
    Голодные игры: Сойка-пересмешница. Часть I 3D скачать торрент в хорошем качестве
    Голодные игры: Сойка-пересмешница. Часть I 3D смотреть онлайн бесплатно в хорошем качестве
    Вы не можете начинать темы
    Вы не можете отвечать на сообщения
    Вы не можете редактировать свои сообщения
    Вы не можете удалять свои сообщения
    Вы не можете голосовать в опросах
    Вы не можете прикреплять файлы к сообщениям
    Вы можете скачивать файлы
    Голодные игры: Сойка-пересмешница. Часть I 3D / The Hunger Games: Mockingjay - Part 1 in 3D [2014 г., Фантастика, Триллер, Приключения, 3D BDRip 1080p, Дубляж] Анаглиф от R.G. HD-Films смотреть онлайн, скачать торрент picoco.icu