Доктор Стрэндж

Лицензия

Добыча

Дубляж

Уэнсдэй

1 сезон

Тор

Дубляж

В эфире

Дубляж

Там, где раки поют

MVO

Властелин колец

1 сезон

Deluxe

pack

Рекомендуем

30

Пиратка

ВАЖНО

ВАЖНО

Ghostwire

Пиратка

jed

RePack

nioh2

RePack

RDR2

RePack

NEED FOR SPEED™ PAYBACK

RePack

скачать торрент

Кинопоиск HD

Острые козырьки 6 сезон

6 сезон

FAR CRY 6

RePack

скачать торрент

Лицензия

скачать торрент

MVO

1

1 сезон

скачать торрент

1 сезон

скачать торрент

Лицензия

  

Топ Ган: Мэверик / Top Gun: Maverick (Джозеф Косински) [2022, Боевик, драма, BDRip 1080p] [IMAX] Дубляж [Пифагор]

Топ Ган: Мэверик через торрент pb.wtf

Раздают: 3 [ 6 KB/s ]
Размер: 11.94 GB | Добавлен: 1 мес. 20 д. назад | Торрент скачан:253 раза
Смотреть онлайн | Скачать   

25-08-2022 18:17 Топ Ган: Мэверик Скачать торрент  

Топ Ган: Мэверик
Top Gun: Maverick

Год выпуска: 2022
Страна: США
Студия: Don Simpson/Jerry Bruckheimer Films, Jerry Bruckheimer Films, Paramount Pictures, Skydance Productions
Жанр: Боевик, драма
Продолжительность: 02:10:14
Перевод: Дублированный | Пифагор
Субтитры: Русские (Forced, full), украинские (full), английские

Режиссер: Джозеф Косински

rating

В ролях: Том Круз, Майлз Теллер, Дженнифер Коннелли, Джон Хэмм, Глен Пауэлл, Льюис Пуллман, Вэл Килмер, Моника Барбаро, Эд Харрис, Джин Луиса Келли и другие.

Описание: Пит Митчелл по прозвищу Мэверик более 30 лет остается одним из лучших пилотов ВМФ: бесстрашный летчик-испытатель, он расширяет границы возможного и старательно избегает повышения в звании, которое заставило бы его приземлиться навсегда. Приступив к подготовке отряда выпускников «Топ Ган» для специальной миссии, подобной которой никогда не было, Мэверик встречает лейтенанта Брэдли Брэдшоу, сына своего покойного друга, лейтенанта Ника Брэдшоу. Впереди - неопределенность, за спиной - призраки прошлого. Мэверик вынужден противостоять своим глубинным страхам, которые грозят ожить в рамках миссии, требующей исключительной самоотверженности от тех, кто будет назначен на вылет.

Качество: BDRip 1080p | IMAX
Формат: MKV

Видео: MPEG-4 AVC, 1920x1012, 12.1 Mbit/s, 23.976 fps
Аудио #01: 48 kHz, AC3, 5.1, 384 Kbps | Дублированный | Пифагор | RUS |
Аудио #03: 48 kHz, AC3, 5.1, 640 Kbps | Оригинал | ENG |
скриншот  скриншот  скриншот  скриншот  скриншот  скриншот  

General
Unique ID : 273123423967823665734279612354653201085 (0xCD79A8777E3CA9057D3B51FC6F4222BD)
Complete name : F:\Video\Top.Gun.Maverick.2022.IMAX.BDRip.1080p.seleZen.mkv
Format : Matroska
Format version : Version 4
File size : 11.9 GiB
Duration : 2 h 10 min
Overall bit rate : 13.1 Mb/s
Movie name : Top Gun Maverick 2022 from seleZen
Encoded date : UTC 2022-10-14 06:44:08
Writing application : mkvmerge v59.0.0 ('Shining Star') 64-bit
Writing library : libebml v1.4.2 + libmatroska v1.6.4

Video
ID : 1
Format : AVC
Format/Info : Advanced Video Codec
Format profile : [email protected]
Format settings : CABAC / 4 Ref Frames
Format settings, CABAC : Yes
Format settings, Reference : 4 frames
Codec ID : V_MPEG4/ISO/AVC
Duration : 2 h 10 min
Bit rate : 12.1 Mb/s
Width : 1 920 pixels
Height : 1 012 pixels
Display aspect ratio : 1.897
Frame rate mode : Constant
Frame rate : 23.976 (24000/1001) FPS
Color space : YUV
Chroma subsampling : 4:2:0
Bit depth : 8 bits
Scan type : Progressive
Bits/(Pixel*Frame) : 0.260
Stream size : 11.0 GiB (92%)
Writing library : x264 core 164 r3085+55M seleZen t_mod_New [(8 & 10)[email protected] X86_64]
Encoding settings : cabac=1 / ref=4 / deblock=1:-2:-2 / analyse=0x3:0x133 / me=umh / subme=11 / psy=1 / fade_compensate=0.00 / psy_rd=1.03:0.02 / mixed_ref=1 / me_range=48 / chroma_me=1 / trellis=2 / 8x8dct=1 / cqm=0 / deadzone=21,11 / fast_pskip=0 / chroma_qp_offset=-3 / threads=32 / lookahead_threads=5 / sliced_threads=0 / nr=0 / decimate=0 / interlaced=0 / bluray_compat=0 / constrained_intra=0 / fgo=0 / bframes=9 / b_pyramid=2 / b_adapt=2 / b_bias=0 / direct=3 / weightb=1 / open_gop=0 / weightp=2 / keyint=240 / keyint_min=23 / scenecut=40 / intra_refresh=0 / rc_lookahead=60 / rc=2pass / mbtree=0 / bitrate=12100 / ratetol=1.0 / qcomp=0.60 / qpmin=0:0:0 / qpmax=51:51:51 / qpstep=4 / cplxblur=20.0 / qblur=0.5 / vbv_maxrate=50000 / vbv_bufsize=62500 / nal_hrd=none / filler=0 / ip_ratio=1.40 / pb_ratio=1.30 / aq=3:0.80 / aq-sensitivity=10.00 / aq-factor=1.00:1.00:1.00 / aq2=0 / aq3=0
Language : English
Default : Yes
Forced : No

Audio #1
ID : 2
Format : AC-3
Format/Info : Audio Coding 3
Commercial name : Dolby Digital
Codec ID : A_AC3
Duration : 2 h 10 min
Bit rate mode : Constant
Bit rate : 384 kb/s
Channel(s) : 6 channels
Channel layout : L R C LFE Ls Rs
Sampling rate : 48.0 kHz
Frame rate : 31.250 FPS (1536 SPF)
Compression mode : Lossy
Stream size : 358 MiB (3%)
Title : Дубляж
Language : Russian
Service kind : Complete Main
Default : Yes
Forced : Yes

Audio #2
ID : 3
Format : AC-3
Format/Info : Audio Coding 3
Commercial name : Dolby Digital
Format settings : Dolby Surround EX
Codec ID : A_AC3
Duration : 2 h 10 min
Bit rate mode : Constant
Bit rate : 640 kb/s
Channel(s) : 6 channels
Channel layout : L R C LFE Ls Rs
Sampling rate : 48.0 kHz
Frame rate : 31.250 FPS (1536 SPF)
Compression mode : Lossy
Stream size : 596 MiB (5%)
Title : Original
Language : English
Service kind : Complete Main
Default : No
Forced : No

Text #1
ID : 4
Format : UTF-8
Codec ID : S_TEXT/UTF8
Codec ID/Info : UTF-8 Plain Text
Duration : 2 h 2 min
Bit rate : 1 b/s
Frame rate : 0.005 FPS
Count of elements : 35
Stream size : 1.54 KiB (0%)
Title : Forced
Language : Russian
Default : Yes
Forced : Yes

Text #2
ID : 5
Format : UTF-8
Codec ID : S_TEXT/UTF8
Codec ID/Info : UTF-8 Plain Text
Duration : 2 h 9 min
Bit rate : 75 b/s
Frame rate : 0.191 FPS
Count of elements : 1479
Stream size : 71.3 KiB (0%)
Title : Full
Language : Russian
Default : No
Forced : No

Text #3
ID : 6
Format : UTF-8
Codec ID : S_TEXT/UTF8
Codec ID/Info : UTF-8 Plain Text
Duration : 2 h 9 min
Bit rate : 75 b/s
Frame rate : 0.190 FPS
Count of elements : 1473
Stream size : 71.9 KiB (0%)
Title : Full
Language : Ukrainian
Default : No
Forced : No

Text #4
ID : 7
Format : UTF-8
Codec ID : S_TEXT/UTF8
Codec ID/Info : UTF-8 Plain Text
Duration : 1 h 57 min
Bit rate : 52 b/s
Frame rate : 0.207 FPS
Count of elements : 1453
Stream size : 45.4 KiB (0%)
Title : Full
Language : English
Default : No
Forced : No

Menu
00:00:00.000 : Глава 01
00:03:05.560 : Глава 02
00:13:40.111 : Глава 03
00:21:23.282 : Глава 04
00:32:39.416 : Глава 05
00:44:47.768 : Глава 06
00:53:54.940 : Глава 07
01:00:09.856 : Глава 08
01:07:39.305 : Глава 09
01:15:46.167 : Глава 10
01:23:37.721 : Глава 11
01:31:49.129 : Глава 12
01:41:32.920 : Глава 13
01:48:48.272 : Глава 14
01:57:22.410 : Глава 15
02:03:13.136 : Глава 16




Скачать Топ Ган: Мэверик через торрент https://i120.fastpic.org/big/2022/0823/25/10be01027a5f694e288ed8e1660cc325.jpg Скачать, смотреть онлайн Топ Ган: Мэверик бесплантно в хорошем качестве Описание: Пит Митчелл по прозвищу Мэверик более 30 лет остается одним из лучших пилотов ВМФ: бесстрашный летчик-испытатель, он расширяет ... 7.4 10 48
Info! Золотая раздача, скачанное не засчитывается.
Торрент: Зарегистрирован [2022-10-14 06:56] · скачан: 253 раз
Статус: √ проверено
Размер: 11.94 GB
Как cкачать? Как скачать Топ Ган: Мэверик через торрент | UTorrent

% Раздел Тема Автор DL S | L
Ultra HD (UHD: 2K, 4K, 8K) [ 60.37 GB ] Топ Ган: Мэверик / Top Gun: Maverick | Пифагор | 2160p bober100 Скачать
3 | 0
Ultra HD (UHD: 2K, 4K, 8K) [ 70.1 GB ] Топ Ган: Мэверик / Top Gun: Maverick | Пифагор | 2160p, (Dolby Vision bober100 Скачать
2 | 0
Ultra HD (UHD: 2K, 4K, 8K) [ 60.4 GB ] Топ Ган: Мэверик / Top Gun: Maverick | Пифагор | 2160p, (Dolby Vision Profile 8 bober100 Скачать
2 | 0
Фильмы 2022 [DVDrip, WEB-DLRip, HDrip] (DUB, MVO) [ 2.18 GB ] Топ Ган: Мэверик / Top Gun: Maverick | Пифагор | BDRip bober100 Скачать
6 | 0
Фильмы (Blu-ray, BD-Remux, HDDVD) [ 32.11 GB ] Топ Ган: Мэверик / Top Gun: Maverick | Пифагор | BD Remux 1080p bober100 Скачать
4 | 1
Фильмы 2022 [DVDrip, WEB-DLRip, HDrip] (DUB, MVO) [ 2.16 GB ] Топ Ган: Мэверик / Top Gun: Maverick | Пифагор | DLRip-AVC bober100 Скачать
21 | 0
Фильмы (HD 720p, 1080p) (48-60 fps) [ 5.74 GB ] Топ Ган: Мэверик / Top Gun: Maverick | Дубляж | DLRip 720p / 60 FPS slaventi-69 Скачать
7 | 0



Последний раз редактировалось: bober100 (2022-10-16 04:41), всего редактировалось 3 раз(а)

28-11-2019 20:33  


Отключить вcю реклaмy на сайте, в т.ч. и в плеере онлайн просмотра!

25-08-2022 20:22 Топ Ган: Мэверик Скачать торрент  

Рейтинг: 5.5 / 10 (6)
Зачем раздачу задизили нелюди? Что не так?



26-08-2022 00:40 Топ Ган: Мэверик Скачать торрент  

Storm067 писал(а):

Рейтинг: 5.5 / 10 (6)
Зачем раздачу задизили нелюди? Что не так?

с раздачей все в порядке, никто ж не жаловался. значит, ставят оценки фильму) и я согласен с ними. считаю, 8.8 на имдб через чур жирно для данного кина



26-08-2022 13:43 Топ Ган: Мэверик Скачать торрент  

tamburetko писал(а):

Storm067 писал(а):

Рейтинг: 5.5 / 10 (6)
Зачем раздачу задизили нелюди? Что не так?

с раздачей все в порядке, никто ж не жаловался. значит, ставят оценки фильму) и я согласен с ними. считаю, 8.8 на имдб через чур жирно для данного кина

Тоже мне показалось что 8.8 многовато, но на imdb уже 8.5 стало,
имхо 7.5-7.8 рейтинг фильма этого за красивые сцены в воздухе почти без компьютерной графики, ну а сюжет простенький



29-08-2022 06:29 Топ Ган: Мэверик Скачать торрент  

Переоцененное не реалистичное говнецо с еле живым Вэлом Килмером, дряхлым Т.Крузом и бабулей Дж Коннели



05-09-2022 14:48 Топ Ган: Мэверик Скачать торрент  

американцы про Су-57 быстрее сняли художественный фильм, чем у мы. лол



15-11-2022 18:08 Топ Ган: Мэверик Скачать торрент  

Кто снимал - того и правила.
Вот если бы не эта - Америка лучше всех, то фильму 10 из 10. Лучшего фильма за последние года не было. Что бы спецэффекты и сюжет сошлись.



    Дорогой пользователь! Огромная просьба, поблагодарите релизера, оцените раздачу и оставьте свои комментарий, если Вы скачали Топ Ган: Мэверик через торрент бесплатно!!
    Комментировать посты могут только пользователи прошедшие не сложную регистрацию
    Показать сообщения:    


    Топ Ган: Мэверик через торрент
    Скачать бесплатно Топ Ган: Мэверик
    Топ Ган: Мэверик скачать торрент
    Топ Ган: Мэверик смотреть онлайн
    Cкачать фильм Топ Ган: Мэверик бесплатно
    Топ Ган: Мэверик скачать торрент в хорошем качестве
    Топ Ган: Мэверик смотреть онлайн бесплатно в хорошем качестве
    Вы не можете начинать темы
    Вы не можете отвечать на сообщения
    Вы не можете редактировать свои сообщения
    Вы не можете удалять свои сообщения
    Вы не можете голосовать в опросах
    Вы не можете прикреплять файлы к сообщениям
    Вы можете скачивать файлы
    Топ Ган: Мэверик / Top Gun: Maverick [2022, Боевик, драма, BDRip 1080p] [IMAX] Дубляж [Пифагор] смотреть онлайн, скачать торрент picoco.icu