Доктор Стрэндж

Лицензия

Добыча

Дубляж

Дом дракона

1 сезон

Тор

Дубляж

В эфире

Дубляж

Там, где раки поют

MVO

Властелин колец

1 сезон

Ultimate

pack

Рекомендуем

30

Пиратка

ВАЖНО

ВАЖНО

Ghostwire

Пиратка

jed

RePack

nioh2

RePack

RDR2

RePack

NEED FOR SPEED™ PAYBACK

RePack

скачать торрент

Кинопоиск HD

Острые козырьки 6 сезон

6 сезон

FAR CRY 6

RePack

скачать торрент

Лицензия

скачать торрент

MVO

1

1 сезон

скачать торрент

1 сезон

скачать торрент

Лицензия

  

Жизнь по вызову (Рынок шкур) / Сезон: 1 / Серии: 1-10 из 10 (Сарик Андреасян) [2022, Драма, WEBRip 1080p]

Жизнь по вызову через торрент pb.wtf

Раздают: 18 [ 1 MB/s ] Качают: 7 [ 0 KB/s ]
Размер: 14.61 GB | Добавлен: 1 мес. 7 д. назад | Торрент скачан:239 раз
Смотреть онлайн | Скачать   

25-08-2022 18:35 Жизнь по вызову Скачать торрент  

Жизнь по вызову (Рынок шкур)
Год выпуска: 2022
Страна: Россия
Производство: Производство ООО «К.Б.А.» по заказу ООО «МТС Медиа»
Жанр: Драма
Продолжительность: ~ 00:34:00
Субтитры: отсутствуют

Режиссер: Сарик Андреасян

rating

В ролях: Павел Прилучный, Наталья Рудова, Олег Каменщиков, Виктория Богатырёва, Владимир Сычев, Михаил Горевой, Кирилл Жандаров, Александр Яцко, Анна Чурина, Никита Кологривый, Сергей Комаров, Янина Студилина, Лиза Моряк, Алексей Кирсанов, Михаил Богдасаров, Максим Щеголев, Полина Максимова, Алексей Гаврилов, Маргарита Шабардыгина, Евгения Ярушникова, Кристина Малай, Марина Дмитриева, Зифа Ялчигулова, Василина Юсковец, Виктор Цекало, Валентина Муравская, Эллина Бандеева, Эмиль Киракосян, Ирина Спиридонова, Айтэч Ашхамахов, Юлия Макарова, Антон Богдасаров, Валерий Зинов, Антон Полетаев, Евгения Макарова, Михаил Зубарев, Олег Толстенко, Андрей Злобин, Антон Харужный, Владимир Башкиров, Лайма Ирбис

Описание: Александр Шмидт - хозяин элитного эскорт-агентства. Его называют Мэджик - он и его команда способны выполнить практически любое желание Агентство Мэджика на вершине успеха. Среди клиентов уважаемые люди: бизнесмены, политики, силовики, общественные деятели. Команда - в лице бывшего бандита по кличке Рыбак и секретаря Галины Михайловны - исполняет любые капризы клиентов. Но внезапно сказка заканчивается: на Мэджика и его бизнес объявлена охота. В один миг он может потерять все - репутацию, бизнес, семью и даже жизнь. У него есть немного времени, чтобы разобраться, кто стоит за этой атакой, и нанести удар первым.

Качество: WEBRip 1080p
Формат: MKV

Видео: MPEG-4 AVC, 1920x1080, ~ 6144 Кбит/с, 0.119 bit/pixel, 25 Кадр/с
Аудио 1: AC3, 48,0 КГц, 2 ch, 192 Кбит/с | С цензурой
Аудио 2: AC3, 48,0 КГц, 2 ch, 192 Кбит/с | Без цензуры (18+)
скриншот  скриншот  скриншот  скриншот  скриншот  

Общее
Уникальный идентификатор : 201691327086215754519338647670018545040 (0x97BC562DC471029F95A50B12F1741590)
Полное имя : D:\Zhizn.po.vyzovu.S01.2022.WEBRip.1080p\Zhizn.po.vyzovu.S01.E01.2022.WEBRip.1080p.mkv
Формат : Matroska
Версия формата : Version 4
Размер файла : 1,48 Гбайт
Продолжительность : 33 м. 43 с.
Режим общего битрейта : Постоянный
Общий поток : 6 288 Кбит/сек
Название фильма : Zhizn.po.vyzovu.S01.E01.2022.WEBRip.1080p
Дата кодирования : UTC 2022-08-25 18:07:00
Программа кодирования : mkvmerge v68.0.0 ('The Curtain') 64-bit
Библиотека кодирования : libebml v1.4.2 + libmatroska v1.6.4
Attachments : poster.jpg

Видео
Идентификатор : 1
Формат : AVC
Формат/Информация : Advanced Video Codec
Профиль формата : [email protected]
Настройки формата : 2 Ref Frames
Параметр CABAC формата : Нет
Параметр RefFrames формата : 2 кадра
Параметр GOP формата : M=1, N=25
Идентификатор кодека : V_MPEG4/ISO/AVC
Продолжительность : 33 м. 43 с.
Вид битрейта : Постоянный
Битрейт : 6 144 Кбит/сек
Ширина : 1 920 пикселей
Высота : 1 080 пикселей
Соотношение сторон : 16:9
Режим частоты кадров : Постоянный
Частота кадров : 25,000 кадров/сек
Цветовое пространство : YUV
Субдискретизация насыщенности : 4:2:0
Битовая глубина : 8 бит
Тип развёртки : Прогрессивная
Бит/(Пиксели*Кадры) : 0.119
Размер потока : 1,39 Гбайт (94%)
Default : Да
Forced : Нет

Аудио #1
Идентификатор : 2
Формат : AC-3
Формат/Информация : Audio Coding 3
Коммерческое название : Dolby Digital
Идентификатор кодека : A_AC3
Продолжительность : 33 м. 43 с.
Вид битрейта : Постоянный
Битрейт : 192 Кбит/сек
Каналы : 2 канала
Channel layout : L R
Частота : 48,0 КГц
Частота кадров : 31,250 кадров/сек (1536 SPF)
Метод сжатия : С потерями
Размер потока : 46,3 Мбайт (3%)
Заголовок : [Censor | AC3 Audio]
Язык : Russian
Service kind : Complete Main
Default : Да
Forced : Нет

Аудио #2
Идентификатор : 3
Формат : AC-3
Формат/Информация : Audio Coding 3
Коммерческое название : Dolby Digital
Идентификатор кодека : A_AC3
Продолжительность : 33 м. 43 с.
Вид битрейта : Постоянный
Битрейт : 192 Кбит/сек
Каналы : 2 канала
Channel layout : L R
Частота : 48,0 КГц
Частота кадров : 31,250 кадров/сек (1536 SPF)
Метод сжатия : С потерями
Размер потока : 46,3 Мбайт (3%)
Заголовок : [18+ | AC3 Audio]
Язык : Russian
Service kind : Complete Main
Default : Нет
Forced : Нет

Внимание! Раздача ведётся путём добавления новых серий; при каждом добавлении создаётся новый торрент.
Чтобы начать докачку новой серии, пользователям необходимо сделать следующее:
1. Остановить скачивание;
2. Удалить старый торрент у себя из клиента (старые серии удалять не надо);
3. Скачать новый торрент и запустить его у себя в клиенте вместо старого, при этом указать клиенту путь в старую папку куда и должно происходить скачивание новых серий. Ваш клиент при этом должен произвести хеширование (проверку) старой папки и будет докачивать только те серии, которых у вас ещё нет. Старые серии при этом не удаляются, а продолжают раздаваться! Eсли вы уже удалили старые серии, то предотвратить повторную закачку старых серий можно, отжав галочку в соответствующих местах при запуске нового торрента.



Скачать Жизнь по вызову через торрент https://i120.fastpic.org/big/2022/0823/fb/e1e4b6bc725bb39851bebd92444950fb.jpg Скачать, смотреть онлайн Жизнь по вызову бесплантно в хорошем качестве Описание: Александр Шмидт - хозяин элитного эскорт-агентства. Его называют Мэджик - он и его команда способны выполнить практически любое ... 9 10 33
Торрент: Зарегистрирован [2022-10-20 16:28] · скачан: 239 раз
Статус: √ проверено
Размер: 14.61 GB
Как cкачать? Как скачать Жизнь по вызову через торрент | UTorrent

% Раздел Тема Автор DL S | L
Наши сериалы [ 4.48 GB ] Жизнь по вызову | | WEBRip-AVC bober100 Скачать
16 | 5
Наши сериалы [ 5.27 GB ] Жизнь по вызову | | WEBRip bober100 Скачать
17 | 0



Последний раз редактировалось: bober100 (2022-10-20 16:28), всего редактировалось 10 раз(а)

28-11-2019 20:33  


Отключить вcю реклaмy на сайте, в т.ч. и в плеере онлайн просмотра!

25-08-2022 18:43 Жизнь по вызову Скачать торрент  

Кругом мохнатку раздвигают :))



26-08-2022 16:29 Жизнь по вызову Скачать торрент  

Режиссер: Сарик Андреасян--чикотило снял не плохо,надо смотреть



12-09-2022 12:28 Жизнь по вызову Скачать торрент  

круто.



24-10-2022 11:33 Жизнь по вызову Скачать торрент  

сценарий такой, будто его писала одна из бабочек на коленке, в те последние 10 минут из часа) впрочем "игра актеров" этого и не скрывает



05-11-2022 18:19 Жизнь по вызову Скачать торрент  

фильм просто бомба, всем рекомендую



    Дорогой пользователь! Огромная просьба, поблагодарите релизера, оцените раздачу и оставьте свои комментарий, если Вы скачали Жизнь по вызову через торрент бесплатно!!
    Комментировать посты могут только пользователи прошедшие не сложную регистрацию
    Показать сообщения:    


    Жизнь по вызову через торрент
    Скачать бесплатно Жизнь по вызову
    Жизнь по вызову скачать торрент
    Жизнь по вызову смотреть онлайн
    Cкачать фильм Жизнь по вызову бесплатно
    Жизнь по вызову скачать торрент в хорошем качестве
    Жизнь по вызову смотреть онлайн бесплатно в хорошем качестве
    Вы не можете начинать темы
    Вы не можете отвечать на сообщения
    Вы не можете редактировать свои сообщения
    Вы не можете удалять свои сообщения
    Вы не можете голосовать в опросах
    Вы не можете прикреплять файлы к сообщениям
    Вы можете скачивать файлы
    Жизнь по вызову / Сезон: 1 / Серии: 1-10 из 10 [2022, Драма, WEBRip 1080p] смотреть онлайн, скачать торрент picoco.icu