Доктор Стрэндж

Лицензия

Добыча

Дубляж

Уэнсдэй

1 сезон

Тор

Дубляж

В эфире

Дубляж

Там, где раки поют

MVO

Властелин колец

1 сезон

Deluxe

pack

Рекомендуем

30

Пиратка

ВАЖНО

ВАЖНО

Ghostwire

Пиратка

jed

RePack

nioh2

RePack

RDR2

RePack

NEED FOR SPEED™ PAYBACK

RePack

скачать торрент

Кинопоиск HD

Острые козырьки 6 сезон

6 сезон

FAR CRY 6

RePack

скачать торрент

Лицензия

скачать торрент

MVO

1

1 сезон

скачать торрент

1 сезон

скачать торрент

Лицензия

  

Жизнь по вызову (Рынок шкур) / Сезон: 1 / Серии: 1-10 из 10 (Сарик Андреасян) [2022, Драма, WEBRip]

Жизнь по вызову через торрент pb.wtf

Раздают: 3 [ 44 KB/s ]
Размер: 5.27 GB | Добавлен: 1 мес. 16 д. назад | Торрент скачан:140 раз
Смотреть онлайн | Скачать   

25-08-2022 18:38 Жизнь по вызову Скачать торрент  

Жизнь по вызову (Рынок шкур)
Год выпуска: 2022
Страна: Россия
Производство: Россия, К.Б.А. / Кинокомпания братьев Андреасян
Жанр: Драма
Продолжительность: ~ 00:34:00
Субтитры: отсутствуют

Режиссер: Сарик Андреасян

rating

В ролях: Павел Прилучный, Наталья Рудова, Олег Каменщиков, Виктория Богатырёва, Владимир Сычев, Михаил Горевой, Кирилл Жандаров, Александр Яцко, Анна Чурина, Никита Кологривый, Сергей Комаров, Янина Студилина, Лиза Моряк, Алексей Кирсанов, Михаил Богдасаров, Максим Щеголев, Полина Максимова, Алексей Гаврилов, Маргарита Шабардыгина, Евгения Ярушникова, Кристина Малай, Марина Дмитриева, Зифа Ялчигулова, Василина Юсковец, Виктор Цекало, Валентина Муравская, Эллина Бандеева, Эмиль Киракосян, Ирина Спиридонова, Айтэч Ашхамахов, Юлия Макарова, Антон Богдасаров, Валерий Зинов, Антон Полетаев, Евгения Макарова, Михаил Зубарев, Олег Толстенко, Андрей Злобин, Антон Харужный, Владимир Башкиров, Лайма Ирбис

Описание: Александр Шмидт - хозяин элитного эскорт-агентства. Его называют Мэджик - он и его команда способны выполнить практически любое желание Агентство Мэджика на вершине успеха. Среди клиентов уважаемые люди: бизнесмены, политики, силовики, общественные деятели. Команда - в лице бывшего бандита по кличке Рыбак и секретаря Галины Михайловны - исполняет любые капризы клиентов. Но внезапно сказка заканчивается: на Мэджика и его бизнес объявлена охота. В один миг он может потерять все - репутацию, бизнес, семью и даже жизнь. У него есть немного времени, чтобы разобраться, кто стоит за этой атакой, и нанести удар первым.

Качество: WEBRip
Формат: AVI

Видео: XviD, 720x400, ~ 1700 Кбит/с, 0.119 bit/pixel, 25 Кадр/с
Аудио 1: AC3, 48,0 КГц, 2 ch, 192 Кбит/с | С цензурой
Аудио 2: AC3, 48,0 КГц, 2 ch, 192 Кбит/с | Без цензуры (18+)
скриншот  скриншот  скриншот  скриншот  скриншот  скриншот  

Общее
Полное имя : D:\Zhizn.po.vyzovu.S01.WEB-DLRip.25Kuzmich\Zhizn.po.vyzovu.s01e01.WEB-DLRip.25Kuzmich.avi
Формат : AVI
Формат/Информация : Audio Video Interleave
Размер файла : 509 Мбайт
Продолжительность : 33 м. 43 с.
Общий поток : 2 112 Кбит/сек
Программа кодирования : VirtualDubMod 1.5.10.3 (build 2550/release)
Библиотека кодирования : VirtualDubMod build 2550/release

Видео
Идентификатор : 0
Формат : MPEG-4 Visual
Профиль формата : Advanced [email protected]
Настройки формата : BVOP1
Параметр BVOP формата : 1
Параметр QPel формата : Нет
Параметр GMC формата : Без точки перехода
Параметр матрицы формата : Default (MPEG)
Идентификатор кодека : XVID
Идентификатор кодека/Подсказка : XviD
Продолжительность : 33 м. 43 с.
Битрейт : 1 714 Кбит/сек
Ширина : 720 пикселей
Высота : 304 пикселя
Соотношение сторон : 2,35:1
Частота кадров : 25,000 кадров/сек
Цветовое пространство : YUV
Субдискретизация насыщенности : 4:2:0
Битовая глубина : 8 бит
Тип развёртки : Прогрессивная
Метод сжатия : С потерями
Бит/(Пиксели*Кадры) : 0.313
Размер потока : 413 Мбайт (81%)
Библиотека кодирования : XviD 73

Аудио #1
Идентификатор : 1
Формат : AC-3
Формат/Информация : Audio Coding 3
Коммерческое название : Dolby Digital
Идентификатор кодека : 2000
Продолжительность : 33 м. 42 с.
Вид битрейта : Постоянный
Битрейт : 192 Кбит/сек
Каналы : 2 канала
Channel layout : L R
Частота : 48,0 КГц
Частота кадров : 31,250 кадров/сек (1536 SPF)
Метод сжатия : С потерями
Размер потока : 46,3 Мбайт (9%)
Выравнивание : Разделение по промежуткам
Продолжительность промежутка : 40 мс. (1,00 видеокадр)
Время предзагрузки промежутка : 500 мс.
Service kind : Complete Main

Аудио #2
Идентификатор : 2
Формат : AC-3
Формат/Информация : Audio Coding 3
Коммерческое название : Dolby Digital
Идентификатор кодека : 2000
Продолжительность : 33 м. 42 с.
Вид битрейта : Постоянный
Битрейт : 192 Кбит/сек
Каналы : 2 канала
Channel layout : L R
Частота : 48,0 КГц
Частота кадров : 31,250 кадров/сек (1536 SPF)
Метод сжатия : С потерями
Размер потока : 46,3 Мбайт (9%)
Выравнивание : Разделение по промежуткам
Продолжительность промежутка : 40 мс. (1,00 видеокадр)
Время предзагрузки промежутка : 500 мс.
Service kind : Complete Main

Внимание! Раздача ведётся путём добавления новых серий; при каждом добавлении создаётся новый торрент.
Чтобы начать докачку новой серии, пользователям необходимо сделать следующее:
1. Остановить скачивание;
2. Удалить старый торрент у себя из клиента (старые серии удалять не надо);
3. Скачать новый торрент и запустить его у себя в клиенте вместо старого, при этом указать клиенту путь в старую папку куда и должно происходить скачивание новых серий. Ваш клиент при этом должен произвести хеширование (проверку) старой папки и будет докачивать только те серии, которых у вас ещё нет. Старые серии при этом не удаляются, а продолжают раздаваться! Eсли вы уже удалили старые серии, то предотвратить повторную закачку старых серий можно, отжав галочку в соответствующих местах при запуске нового торрента.



Скачать Жизнь по вызову через торрент https://i120.fastpic.org/big/2022/0823/fb/e1e4b6bc725bb39851bebd92444950fb.jpg Скачать, смотреть онлайн Жизнь по вызову бесплантно в хорошем качестве Описание: Александр Шмидт - хозяин элитного эскорт-агентства. Его называют Мэджик - он и его команда способны выполнить практически любое ... 9.3 10 26
Торрент: Зарегистрирован [2022-10-20 16:27] · скачан: 140 раз
Статус: √ проверено
Размер: 5.27 GB
Как cкачать? Как скачать Жизнь по вызову через торрент | UTorrent

% Раздел Тема Автор DL S | L
Наши сериалы [ 14.61 GB ] Жизнь по вызову | | 1080p bober100 Скачать
14 | 1
Наши сериалы [ 4.48 GB ] Жизнь по вызову | | WEBRip-AVC bober100 Скачать
5 | 1

28-11-2019 20:33  


Отключить вcю реклaмy на сайте, в т.ч. и в плеере онлайн просмотра!

    Дорогой пользователь! Огромная просьба, поблагодарите релизера, оцените раздачу и оставьте свои комментарий, если Вы скачали Жизнь по вызову через торрент бесплатно!!
    Комментировать посты могут только пользователи прошедшие не сложную регистрацию
    Показать сообщения:    


    Жизнь по вызову через торрент
    Скачать бесплатно Жизнь по вызову
    Жизнь по вызову скачать торрент
    Жизнь по вызову смотреть онлайн
    Cкачать фильм Жизнь по вызову бесплатно
    Жизнь по вызову скачать торрент в хорошем качестве
    Жизнь по вызову смотреть онлайн бесплатно в хорошем качестве
    Вы не можете начинать темы
    Вы не можете отвечать на сообщения
    Вы не можете редактировать свои сообщения
    Вы не можете удалять свои сообщения
    Вы не можете голосовать в опросах
    Вы не можете прикреплять файлы к сообщениям
    Вы можете скачивать файлы
    Жизнь по вызову / Сезон: 1 / Серии: 1-10 из 10 [2022, Драма, WEBRip] смотреть онлайн, скачать торрент picoco.icu