Доктор Стрэндж

Лицензия

Добыча

Дубляж

Дом дракона

1 сезон

Тор

Дубляж

В эфире

Дубляж

Там, где раки поют

MVO

Властелин колец

1 сезон

GLOBAL

pack

Рекомендуем

30

Пиратка

ВАЖНО

ВАЖНО

Ghostwire

Пиратка

jed

RePack

nioh2

RePack

RDR2

RePack

NEED FOR SPEED™ PAYBACK

RePack

скачать торрент

Кинопоиск HD

Острые козырьки 6 сезон

6 сезон

FAR CRY 6

RePack

скачать торрент

Лицензия

скачать торрент

MVO

1

1 сезон

скачать торрент

1 сезон

скачать торрент

Лицензия

  

Голодные игры: Сойка-пересмешница. Часть II 3D / The Hunger Games: Mockingjay - Part 2 in 3D (Френсис Лоуренс) [2015 г., Фантастика, Приключения, 3D BDRip 1080p, Дубляж iTunes] Анаглиф (Дюбуа) от R.G. HD-Films

Голодные игры: Сойка-пересмешница. Часть II 3D через торрент pb.wtf

Размер: 8.29 GB | Добавлен: 3 мес. 3 д. назад | Торрент скачан:1 раз
Смотреть онлайн | Скачать   

26-08-2022 10:14 Голодные игры: Сойка-пересмешница. Часть II 3D Скачать торрент  

Голодные игры: Сойка-пересмешница. Часть II / The Hunger Games: Mockingjay - Part 2
Год выпуска: 2015
Страна: США, Германия
Жанр: Фантастика, Приключения
Продолжительность: 02:17:46
Перевод: Дубляж iTunes
Субтитры: Русские (Forced вшитые, full), английские

Режиссер: Френсис Лоуренс

Бюджет: $160 000 000
Премьера в мире: 4 ноября 2015

rating

В ролях: Дженнифер Лоуренс (Katniss Everdeen), Джош Хатчерсон (Peeta Mellark), Лиам Хемсворт (Gale Hawthorne), Вуди Харрельсон (Haymitch Abernathy), Дональд Сазерленд (President Snow), Филип Сеймур Хоффман (Plutarch Heavensbee), Джулианна Мур (President Alma Coin), Уиллоу Шилдс (Primrose Everdeen), Сэм Клафлин (Finnick Odair), Элизабет Бэнкс (Effie Trinket), Махершала Али (Boggs), Джена Мэлоун (Johanna Mason)

Описание: Китнисс Эвердин и своенравный Пит Мелларк пытаются выиграть гражданскую войну между самодержавным Капитолием и истерзанными войной районами Панема…

Доп. информация: Формат 3D: Анаглиф (Дюбуа)



Качество: 3D BDRip 1080p
Формат: MKV
Видео кодек: H.264
Аудио кодек: AC3
Видео: 1920 x 1080 (16:9), 7593 kbps, 23,976 fps, 0.153 bpp
Аудио#1: Русский / AC3 / 48 KHz / 5.1 ch / 384 Kbps (Дубляж - iTunes)
Аудио#2: Английский / AC3 / 48 KHz / 5.1 ch / 640 Kbps (Original - BD 3D Ger)
Релиз от: Автор рипа: slaventi-69
x264 [info]: using cpu capabilities: MMX2 SSE2Fast SSSE3 SSE4.2 AVX AVX2 FMA3 LZCNT BMI1 BMI2
x264 [info]: profile High, level 4.1
x264 [info]: frame I:1213 Avg QP:10.72 size:177559
x264 [info]: frame P:52788 Avg QP:12.30 size: 73378
x264 [info]: frame B:144180 Avg QP:14.20 size: 26056
x264 [info]: consecutive B-frames: 2.3% 4.4% 14.9% 41.4% 37.0%


Общее
Уникальный идентификатор : 189491612192927491117803513131369947796 (0x8E8EC1CB9EEE87A5C4197EB40C3EE294)
Полное имя : G:\60 FPS\The.Hunger.Games_Mockingjay.Part.2.(2015).3D.(Anaglyph_Dubois).mkv
Формат : Matroska
Версия формата : Version 4
Размер файла : 8,29 Гбайт
Продолжительность : 2 ч. 17 м.
Общий поток : 8620 Кбит/сек
Название фильма : Голодные игры: Сойка-пересмешница. Часть II / The Hunger Games: Mockingjay - Part 2 (2015) в 3D (Anaglyph_Dubois)
Дата кодирования : UTC 2022-08-26 09:15:42
Программа кодирования : mkvmerge v69.0.0 ('Day And Age') 64-bit
Библиотека кодирования : libebml v1.4.2 + libmatroska v1.6.4

Видео
Идентификатор : 1
Формат : AVC
Формат/Информация : Advanced Video Codec
Профиль формата : [email protected]
MultiView_Count : 2
MultiView_Layout : Anaglyph (cyan/red)
Настройки формата : CABAC / 4 Ref Frames
Параметр CABAC формата : Да
Параметр RefFrames формата : 4 кадра
Идентификатор кодека : V_MPEG4/ISO/AVC
Продолжительность : 2 ч. 17 м.
Битрейт : 7593 Кбит/сек
Ширина : 1920 пикселей
Высота : 1080 пикселей
Соотношение сторон : 16:9
Режим частоты кадров : Постоянный
Частота кадров : 23,976 (24000/1001) кадра/сек
Цветовое пространство : YUV
Субдискретизация насыщенности : 4:2:0
Битовая глубина : 8 бит
Тип развёртки : Прогрессивная
Бит/(Пиксели*Кадры) : 0.153
Размер потока : 7,31 Гбайт (88%)
Заголовок : slaventi-69 ( R.G. HD-Films ) 3Д (Anaglyph_Dubois)
Библиотека кодирования : x264 core 130 r2273 b3065e6
Настройки программы : cabac=1 / ref=4 / deblock=1:-3:-3 / analyse=0x3:0x133 / me=umh / subme=9 / psy=1 / psy_rd=1.00:0.00 / mixed_ref=1 / me_range=32 / chroma_me=1 / trellis=2 / 8x8dct=1 / cqm=0 / deadzone=21,11 / fast_pskip=0 / chroma_qp_offset=-2 / threads=8 / lookahead_threads=4 / sliced_threads=0 / nr=0 / decimate=1 / interlaced=0 / bluray_compat=0 / constrained_intra=0 / bframes=4 / b_pyramid=2 / b_adapt=2 / b_bias=0 / direct=1 / weightb=1 / open_gop=0 / weightp=2 / keyint=600 / keyint_min=23 / scenecut=40 / intra_refresh=0 / rc=crf / mbtree=0 / crf=18.3 / qcomp=0.60 / qpmin=0 / qpmax=69 / qpstep=4 / ip_ratio=1.40 / pb_ratio=1.30 / aq=1:1.00
Язык : English
Default : Да
Forced : Нет

Аудио #1
Идентификатор : 2
Формат : AC-3
Формат/Информация : Audio Coding 3
Коммерческое название : Dolby Digital
Идентификатор кодека : A_AC3
Продолжительность : 2 ч. 17 м.
Вид битрейта : Постоянный
Битрейт : 384 Кбит/сек
Каналы : 6 каналов
Channel layout : L R C LFE Ls Rs
Частота : 48,0 КГц
Частота кадров : 31,250 кадров/сек (1536 SPF)
Битовая глубина : 16 бит
Метод сжатия : С потерями
Размер потока : 378 Мбайт (4%)
Заголовок : Дубляж - iTunes
Язык : Russian
ServiceKind/String : Complete Main
Default : Да
Forced : Нет

Аудио #2
Идентификатор : 3
Формат : AC-3
Формат/Информация : Audio Coding 3
Коммерческое название : Dolby Digital
Идентификатор кодека : A_AC3
Продолжительность : 2 ч. 17 м.
Вид битрейта : Постоянный
Битрейт : 640 Кбит/сек
Каналы : 6 каналов
Channel layout : L R C LFE Ls Rs
Частота : 48,0 КГц
Частота кадров : 31,250 кадров/сек (1536 SPF)
Битовая глубина : 16 бит
Метод сжатия : С потерями
Размер потока : 631 Мбайт (7%)
Заголовок : Original - BD 3D Ger
Язык : English
ServiceKind/String : Complete Main
Default : Нет
Forced : Нет

Текст #1
Идентификатор : 4
Формат : UTF-8
Идентификатор кодека : S_TEXT/UTF8
Идентификатор кодека/Информация : UTF-8 Plain Text
Продолжительность : 2 ч. 4 м.
Битрейт : 77 бит/сек
ElementCount : 1293
Размер потока : 70,7 Кбайт (0%)
Заголовок : Полные
Язык : Russian
Default : Нет
Forced : Нет

Текст #2
Идентификатор : 5
Формат : UTF-8
Идентификатор кодека : S_TEXT/UTF8
Идентификатор кодека/Информация : UTF-8 Plain Text
Продолжительность : 2 ч. 4 м.
Битрейт : 47 бит/сек
ElementCount : 1350
Размер потока : 43,0 Кбайт (0%)
Заголовок : Full
Язык : English
Default : Нет
Forced : Нет

Текст #3
Идентификатор : 6
Формат : UTF-8
Идентификатор кодека : S_TEXT/UTF8
Идентификатор кодека/Информация : UTF-8 Plain Text
Продолжительность : 2 ч. 4 м.
Битрейт : 50 бит/сек
ElementCount : 1485
Размер потока : 46,5 Кбайт (0%)
Заголовок : SDH
Язык : English
Default : Нет
Forced : Нет

Меню
00:00:00.000 : :1
00:10:58.116 : :2
00:19:43.682 : :3
00:29:34.106 : :4
00:43:44.956 : :5
00:55:20.901 : :6
01:04:54.849 : :7
01:19:02.988 : :8
01:37:28.259 : :9
01:49:21.805 : :10
01:59:34.417 : :11
02:05:49.792 : :12

Просьба к переливающим на другие сайты, в оформлении указывайте пожалуйста авторство группы R.G. HD-Films



Скачать Голодные игры: Сойка-пересмешница. Часть II 3D через торрент http://i75.fastpic.ru/big/2016/0315/26/51aa63b1990b62e17d7bad9796c0bd26.png Скачать, смотреть онлайн Голодные игры: Сойка-пересмешница. Часть II 3D бесплантно в хорошем качестве Описание: Китнисс Эвердин и своенравный Пит Мелларк пытаются выиграть гражданскую войну между самодержавным Капитолием и истерзанными ... 10 10 1
Торрент: Зарегистрирован [2022-08-26 10:14] · скачан: 1 раз
Статус: √ проверено
Размер: 8.29 GB
Как cкачать? Как скачать Голодные игры: Сойка-пересмешница. Часть II 3D через торрент | UTorrent

% Раздел Тема Автор DL S | L
3D Фильмы [ 12.3 GB ] Голодные игры: Сойка-пересмешница. Часть II в 3Д / The Hunger Games: Mockingjay - Part 2 3D | стереопара | 1080p serega768 Скачать
1 | 0

28-11-2019 20:33  


Отключить вcю реклaмy на сайте, в т.ч. и в плеере онлайн просмотра!

    Дорогой пользователь! Огромная просьба, поблагодарите релизера, оцените раздачу и оставьте свои комментарий, если Вы скачали Голодные игры: Сойка-пересмешница. Часть II 3D через торрент бесплатно!!
    Комментировать посты могут только пользователи прошедшие не сложную регистрацию
    Показать сообщения:    


    Голодные игры: Сойка-пересмешница. Часть II 3D через торрент
    Скачать бесплатно Голодные игры: Сойка-пересмешница. Часть II 3D
    Голодные игры: Сойка-пересмешница. Часть II 3D скачать торрент
    Голодные игры: Сойка-пересмешница. Часть II 3D смотреть онлайн
    Cкачать фильм Голодные игры: Сойка-пересмешница. Часть II 3D бесплатно
    Голодные игры: Сойка-пересмешница. Часть II 3D скачать торрент в хорошем качестве
    Голодные игры: Сойка-пересмешница. Часть II 3D смотреть онлайн бесплатно в хорошем качестве
    Вы не можете начинать темы
    Вы не можете отвечать на сообщения
    Вы не можете редактировать свои сообщения
    Вы не можете удалять свои сообщения
    Вы не можете голосовать в опросах
    Вы не можете прикреплять файлы к сообщениям
    Вы можете скачивать файлы
    Голодные игры: Сойка-пересмешница. Часть II 3D / The Hunger Games: Mockingjay - Part 2 in 3D [2015 г., Фантастика, Приключения, 3D BDRip 1080p, Дубляж iTunes] Анаглиф от R.G. HD-Films смотреть онлайн, скачать торрент picoco.icu