Достать ножи: Стеклянная луковица

MVO

Добыча

Дубляж

Уэнсдэй

1 сезон

Тор

Дубляж

13 клиническая

1 сезон

Жестокая ночь

MVO

Одни из нас

1 сезон

Deluxe

pack

Рекомендуем

30

Пиратка

ВАЖНО

ВАЖНО

Ghostwire

Пиратка

jed

RePack

nioh2

RePack

RDR2

RePack

NEED FOR SPEED™ PAYBACK

RePack

скачать торрент

Кинопоиск HD

Острые козырьки 6 сезон

6 сезон

FAR CRY 6

RePack

скачать торрент

Лицензия

скачать торрент

MVO

1

1 сезон

скачать торрент

1 сезон

скачать торрент

Лицензия

  

Видеть / See / Сезон: 3 / Серии: 1-8 из 8 (Френсис Лоуренс, Андерс Энгстрем, Стивен Серджик) [2022, Фантастика, драма, WEB-DL (HEVC)1080p] [MVO] (HDRezka) + [Дубляж] (Пифагор) + [Ukr MVO] (DniproFilm)

Видеть через торрент pb.wtf

Размер: 15.31 GB | Добавлен: 3 мес. 17 д. назад | Торрент скачан:51 раз
Смотреть онлайн | Скачать | Поддержите нас   

27-08-2022 07:01 Видеть Скачать торрент  

ВидетьSee

✦ Год выпуска: 2022
✦ Страна: США
✦ Жанр: Фантастика, драма
✦ Продолжительность: ~01:00:00
✦ Перевод #1: Профессиональный (многоголосый) - HDRezka
✦ Перевод #2: Дублированный - Пифагор
✦ Перевод #3: Профессиональный (многоголосый) - Украинский
✦ Субтитры: английские, русские (forced, full), украинские (forced, full)

✦ Режиссёр: Френсис Лоуренс, Андерс Энгстрем, Стивен Серджик

✦ В ролях: Элфри Вудард, Джош Блэкер, Кристиан Камарго, Неста Купер, Yadira Guevara-Prip, Хера Хильмар, Сильвия Хукс, Арчи Мадекве, Джейсон Момоа, Кристиан Слоун

✦ Описание: Действие сериала разворачивается в далёком будущем, когда человеческая раса лишилась зрения. Люди вернулись к племенному образу жизни, называя солнце «пламенным богом» и сжигая на кострах «еретиков», которые всё ещё вспоминают о зрении. Однажды глава племени Баба Восс берёт в жены Магру, пришедшую в поселение извне. Вскоре у женщины рождаются зрячие близнецы, в результате чего семью проклинают и называют еретиками. Желая защитить детей, Баба Восс решает бежать вместе с жителями деревни, чтобы построить дом в новом месте, ведь рождение зрячих рискует нарушить хрупкий баланс нового мира...

rating

✦ Качество: WEB-DL (HEVC)1080p
✦ Формат: MKV
✦ Видео кодек: x.265
✦ Аудио кодек: AC3, E-AC3
✦ Видео: HEVC, 1920x910, 3 500 Kbps, 23,976 fps
✦ Аудио #1 Rus: AC3, 48 kHz, 6 ch, 448 kbps - HDRezka
✦ Аудио #2 Rus: AC3, 48 kHz, 6 ch, 448 kbps - Дубляж
✦ Аудио #3 Ukr: AC3, 48 kHz, 6 ch, 384 kbps - DniproFilm
✦ Аудио #4 Eng: E-AC3 JOC, 48 kHz, 6 ch, 768 kbps|Original|
скриншот  скриншот  скриншот  скриншот  
General
Unique ID : 198986706439304795995169900642452830715 (0x95B37215E605A339A3DD6B036D0EF9FB)
Complete name : G:\See.S03.WEB-DL(HEVC)1080p.xz\See.S03E01.WEB-DL(HEVC)1080p.[HDR], [Дубляж], [Ukr].xz.mkv
Format : Matroska
Format version : Version 4
File size : 2.26 GiB
Duration : 58 min 1 s
Overall bit rate : 5 565 kb/s
Movie name : See.S03E01.WEB-DL(HEVC)1080p.[HDR], [Дубляж], [Ukr].xz
Encoded date : UTC 2022-08-27 06:47:12
Writing application : mkvmerge v6.1.0 ('Old Devil') built on Mar 2 2013 14:32:37
Writing library : libebml v1.3.0 + libmatroska v1.4.0

Video
ID : 1
Format : HEVC
Format/Info : High Efficiency Video Coding
Format profile : Main [email protected]@Main
Codec ID : V_MPEGH/ISO/HEVC
Duration : 58 min 1 s
Bit rate : 3 406 kb/s
Width : 1 920 pixels
Height : 910 pixels
Display aspect ratio : 2.110
Frame rate mode : Constant
Frame rate : 23.976 FPS
Color space : YUV
Chroma subsampling : 4:2:0
Bit depth : 10 bits
Bits/(Pixel*Frame) : 0.081
Stream size : 1.38 GiB (61%)
Title : See.S03E01.WEB-DL(HEVC)1080p.[HDR], [Дубляж], [Ukr].xz
Writing library : x265 3.5+8-57e817329:[Windows][GCC 10.2.0][64 bit] 10bit
Encoding settings : cpuid=1111039 / frame-threads=3 / numa-pools=8 / wpp / no-pmode / no-pme / no-psnr / no-ssim / log-level=2 / input-csp=1 / input-res=1920x910 / interlace=0 / total-frames=83470 / level-idc=0 / high-tier=1 / uhd-bd=0 / ref=3 / no-allow-non-conformance / no-repeat-headers / annexb / no-aud / no-hrd / info / hash=0 / no-temporal-layers / open-gop / min-keyint=23 / keyint=250 / gop-lookahead=0 / bframes=4 / b-adapt=2 / b-pyramid / bframe-bias=0 / rc-lookahead=20 / lookahead-slices=5 / scenecut=40 / hist-scenecut=0 / radl=0 / no-splice / no-intra-refresh / ctu=64 / min-cu-size=8 / no-rect / no-amp / max-tu-size=32 / tu-inter-depth=1 / tu-intra-depth=1 / limit-tu=0 / rdoq-level=0 / dynamic-rd=0.00 / no-ssim-rd / signhide / no-tskip / nr-intra=0 / nr-inter=0 / no-constrained-intra / strong-intra-smoothing / max-merge=3 / limit-refs=1 / no-limit-modes / me=1 / subme=2 / merange=57 / temporal-mvp / no-frame-dup / no-hme / weightp / no-weightb / no-analyze-src-pics / deblock=0:0 / sao / no-sao-non-deblock / rd=3 / selective-sao=4 / early-skip / rskip / no-fast-intra / no-tskip-fast / no-cu-lossless / b-intra / no-splitrd-skip / rdpenalty=0 / psy-rd=2.00 / psy-rdoq=0.00 / no-rd-refine / no-lossless / cbqpoffs=0 / crqpoffs=0 / rc=crf / crf=17.4 / qcomp=0.60 / qpstep=4 / stats-write=0 / stats-read=0 / ipratio=1.40 / pbratio=1.30 / aq-mode=2 / aq-strength=1.00 / cutree / zone-count=0 / no-strict-cbr / qg-size=32 / no-rc-grain / qpmax=69 / qpmin=0 / no-const-vbv / sar=0 / overscan=0 / videoformat=5 / range=0 / colorprim=2 / transfer=2 / colormatrix=2 / chromaloc=0 / display-window=0 / cll=0,0 / min-luma=0 / max-luma=1023 / log2-max-poc-lsb=8 / vui-timing-info / vui-hrd-info / slices=1 / no-opt-qp-pps / no-opt-ref-list-length-pps / no-multi-pass-opt-rps / scenecut-bias=0.05 / hist-threshold=0.03 / no-opt-cu-delta-qp / no-aq-motion / no-hdr10 / no-hdr10-opt / no-dhdr10-opt / no-idr-recovery-sei / analysis-reuse-level=0 / analysis-save-reuse-level=0 / analysis-load-reuse-level=0 / scale-factor=0 / refine-intra=0 / refine-inter=0 / refine-mv=1 / refine-ctu-distortion=0 / no-limit-sao / ctu-info=0 / no-lowpass-dct / refine-analysis-type=0 / copy-pic=1 / max-ausize-factor=1.0 / no-dynamic-refine / no-single-sei / no-hevc-aq / no-svt / no-field / qp-adaptation-range=1.00 / scenecut-aware-qp=0conformance-window-offsets / right=0 / bottom=0 / decoder-max-rate=0 / no-vbv-live-multi-pass
Default : Yes
Forced : Yes
Duration_Source : General_Duration

Audio #1
ID : 2
Format : AC-3
Format/Info : Audio Coding 3
Commercial name : Dolby Digital
Codec ID : A_AC3
Duration : 58 min 1 s
Bit rate mode : Constant
Bit rate : 448 kb/s
Channel(s) : 6 channels
Channel layout : L R C LFE Ls Rs
Sampling rate : 48.0 kHz
Frame rate : 31.250 FPS (1536 SPF)
Compression mode : Lossy
Stream size : 186 MiB (8%)
Title : HDR
Language : Russian
Service kind : Complete Main
Default : No
Forced : No
Duration_Source : General_Duration

Audio #2
ID : 3
Format : AC-3
Format/Info : Audio Coding 3
Commercial name : Dolby Digital
Codec ID : A_AC3
Duration : 58 min 1 s
Bit rate mode : Constant
Bit rate : 448 kb/s
Channel(s) : 6 channels
Channel layout : L R C LFE Ls Rs
Sampling rate : 48.0 kHz
Frame rate : 31.250 FPS (1536 SPF)
Compression mode : Lossy
Stream size : 186 MiB (8%)
Title : Дубляж
Language : Russian
Service kind : Complete Main
Default : No
Forced : No
Duration_Source : General_Duration

Audio #3
ID : 4
Format : AC-3
Format/Info : Audio Coding 3
Commercial name : Dolby Digital
Codec ID : A_AC3
Duration : 58 min 1 s
Bit rate mode : Constant
Bit rate : 384 kb/s
Channel(s) : 6 channels
Channel layout : L R C LFE Ls Rs
Sampling rate : 48.0 kHz
Frame rate : 31.250 FPS (1536 SPF)
Compression mode : Lossy
Stream size : 159 MiB (7%)
Title : DniproFilm
Language : Ukrainian
Service kind : Complete Main
Default : No
Forced : No
Duration_Source : General_Duration

Audio #4
ID : 5
Format : E-AC-3 JOC
Format/Info : Enhanced AC-3 with Joint Object Coding
Commercial name : Dolby Digital Plus with Dolby Atmos
Codec ID : A_EAC3
Duration : 58 min 1 s
Bit rate mode : Constant
Bit rate : 768 kb/s
Channel(s) : 6 channels
Channel layout : L R C LFE Ls Rs
Sampling rate : 48.0 kHz
Frame rate : 31.250 FPS (1536 SPF)
Compression mode : Lossy
Stream size : 319 MiB (14%)
Language : English
Service kind : Complete Main
Default : No
Forced : No
Statistics Tags Issue : mkvmerge v70.0.0 ('Caught A Lite Sneeze') 64-bit 2022-08-26 13:13:46 / mkvmerge v6.1.0 ('Old Devil') built on Mar 2 2013 14:32:37 2022-08-27 06:47:12
FromStats_BitRate : 768000
FromStats_Duration : 00:58:01.408000000
FromStats_FrameCount : 108794
FromStats_StreamSize : 334215168
Complexity index : 16
Number of dynamic objects : 15
Bed channel count : 1 channel
Bed channel configuration : LFE
Duration_Source : General_Duration

Text #1
ID : 6
Format : UTF-8
Codec ID : S_TEXT/UTF8
Codec ID/Info : UTF-8 Plain Text
Title : English
Language : English
Default : No
Forced : No
Statistics Tags Issue : mkvmerge v70.0.0 ('Caught A Lite Sneeze') 64-bit 2022-08-26 13:13:46 / mkvmerge v6.1.0 ('Old Devil') built on Mar 2 2013 14:32:37 2022-08-27 06:47:12
FromStats_BitRate : 52
FromStats_Duration : 00:56:07.492000000
FromStats_FrameCount : 657
FromStats_StreamSize : 22231

Text #2
ID : 7
Format : UTF-8
Codec ID : S_TEXT/UTF8
Codec ID/Info : UTF-8 Plain Text
Title : English (SDH)
Language : English
Default : No
Forced : No
Statistics Tags Issue : mkvmerge v70.0.0 ('Caught A Lite Sneeze') 64-bit 2022-08-26 13:13:46 / mkvmerge v6.1.0 ('Old Devil') built on Mar 2 2013 14:32:37 2022-08-27 06:47:12
FromStats_BitRate : 61
FromStats_Duration : 00:56:20.255000000
FromStats_FrameCount : 791
FromStats_StreamSize : 26013

Text #3
ID : 8
Format : UTF-8
Codec ID : S_TEXT/UTF8
Codec ID/Info : UTF-8 Plain Text
Title : English (CC)
Language : English
Default : No
Forced : No
Statistics Tags Issue : mkvmerge v70.0.0 ('Caught A Lite Sneeze') 64-bit 2022-08-26 13:13:46 / mkvmerge v6.1.0 ('Old Devil') built on Mar 2 2013 14:32:37 2022-08-27 06:47:12
FromStats_BitRate : 76
FromStats_Duration : 00:56:20.104000000
FromStats_FrameCount : 789
FromStats_StreamSize : 32451

Text #4
ID : 9
Format : UTF-8
Codec ID : S_TEXT/UTF8
Codec ID/Info : UTF-8 Plain Text
Title : forced
Language : Russian
Default : No
Forced : No

Text #5
ID : 10
Format : UTF-8
Codec ID : S_TEXT/UTF8
Codec ID/Info : UTF-8 Plain Text
Title : full
Language : Russian
Default : No
Forced : No

Text #6
ID : 11
Format : UTF-8
Codec ID : S_TEXT/UTF8
Codec ID/Info : UTF-8 Plain Text
Title : SDH
Language : Russian
Default : No
Forced : No

Text #7
ID : 12
Format : UTF-8
Codec ID : S_TEXT/UTF8
Codec ID/Info : UTF-8 Plain Text
Title : forced
Language : Ukrainian
Default : No
Forced : No

Text #8
ID : 13
Format : UTF-8
Codec ID : S_TEXT/UTF8
Codec ID/Info : UTF-8 Plain Text
Title : full
Language : Ukrainian
Default : No
Forced : No
Внимание! Раздача ведётся путём добавления новых серий; при каждом добавлении создаётся новый торрент. Чтобы начать докачку новой серии, пользователям необходимо сделать следующее:
(1) остановить скачивание,
(2) удалить старый торрент у себя из клиента (старые серии удалять не надо),
(3) скачать новый торрент и запустить его у себя в клиенте вместо старого, при этом указать клиенту путь в старую папку куда и должно происходить скачивание новых серий.

Ваш клиент при этом должен произвести хеширование (проверку) старой папки (если не производит сам - помогите ему сделать это), и будет докачивать только те серии которых у вас ещё нет. Старые серии при этом не удаляются, а продолжают раздаваться!

Eсли вы уже удалили старые серии, то предотвратить повторную закачку старых серий можно, отжав галочку в соответствующих местах при запуске нового торрента. По возможности, желательно не удалять старые серии как можно дольше чтобы релизёр не столько продолжал раздавать старые серии, а смог сконцентрироваться на новых.



Скачать Видеть через торрент https://i120.fastpic.org/big/2022/0827/37/01691d278593b37edf132c5eb87c2837.jpg Скачать, смотреть онлайн Видеть бесплантно в хорошем качестве Описание: Действие сериала разворачивается в далёком будущем, когда человеческая раса лишилась зрения. Люди вернулись к племенному образу ... 9.3 10 15
Торрент: Зарегистрирован [2022-10-16 19:56] · скачан: 51 раз
Статус: √ проверено
Размер: 15.31 GB
Как cкачать? Как скачать Видеть через торрент | UTorrent

% Раздел Тема Автор DL S | L
Зарубежные сериалы [ 33.25 GB ] Видеть / See / Сезон: 3 / Серии: 1-8 из 8 | Пифагор | 1080p killermax2013 Скачать
1 | 0
Зарубежные сериалы [ 12.64 GB ] Видеть / See / Сезон: 3 / Серии: 1-8 из 8 | Пифагор | 720p bober100 Скачать
3 | 0
T Зарубежные сериалы [ 9.23 GB ] Видеть / See / Сезон: 3 / Серии: 1-8 из 8 | ColdFilm | 720p bober100 Скачать
1 | 1
Зарубежные сериалы [ 6.3 GB ] Видеть / See / Сезон: 2 / Серии: 1-8 из 8 | LostFilm | DLRip bober100 Скачать
1 | 0
Зарубежные сериалы [ 37.72 GB ] Видеть / See / Сезон: 2 / Серии: 1-8 из 8 | NewStudio | 1080p bober100 Скачать
1 | 0
Зарубежные сериалы [ 14.14 GB ] Видеть / See / Сезон: 2 / Серии: 1-8 из 8 | Пифагор | 720p bober100 Скачать
2 | 0
Зарубежные сериалы [ 16.95 GB ] Видеть / See / Сезон: 2 / Серии: 1-8 из 8 | Jaskier | 720p killermax2013 Скачать
1 | 0

28-11-2019 20:33  


Отключить вcю реклaмy на сайте, в т.ч. и в плеере онлайн просмотра!

    Дорогой пользователь! Огромная просьба, поблагодарите релизера, оцените раздачу и оставьте свои комментарий, если Вы скачали Видеть через торрент бесплатно!!
    Комментировать посты могут только пользователи прошедшие не сложную регистрацию
    Показать сообщения:    


    Видеть через торрент
    Скачать бесплатно Видеть
    Видеть скачать торрент
    Видеть смотреть онлайн
    Cкачать фильм Видеть бесплатно
    Видеть скачать торрент в хорошем качестве
    Видеть смотреть онлайн бесплатно в хорошем качестве
    Вы не можете начинать темы
    Вы не можете отвечать на сообщения
    Вы не можете редактировать свои сообщения
    Вы не можете удалять свои сообщения
    Вы не можете голосовать в опросах
    Вы не можете прикреплять файлы к сообщениям
    Вы можете скачивать файлы
    Видеть / See / Сезон: 3 / Серии: 1-8 из 8 [2022, Фантастика, драма, WEB-DL 1080p] [MVO] + [Дубляж] + [Ukr MVO] смотреть онлайн, скачать торрент picoco.icu