Доктор Стрэндж

Лицензия

Добыча

Дубляж

Дом дракона

1 сезон

Тор

Дубляж

В эфире

Дубляж

Там, где раки поют

MVO

Властелин колец

1 сезон

Deluxe

pack

Рекомендуем

30

Пиратка

ВАЖНО

ВАЖНО

Ghostwire

Пиратка

jed

RePack

nioh2

RePack

RDR2

RePack

NEED FOR SPEED™ PAYBACK

RePack

скачать торрент

Кинопоиск HD

Острые козырьки 6 сезон

6 сезон

FAR CRY 6

RePack

скачать торрент

Лицензия

скачать торрент

MVO

1

1 сезон

скачать торрент

1 сезон

скачать торрент

Лицензия

  

Видеть / See / Сезон: 3 / Серии: 1-8 из 8 (Андерс Энгстрем) [2022, Фантастика, боевик, драма, WEB-DLRip] MVO [HDRezka]

Видеть через торрент pb.wtf

Раздают: 3 [ 0 KB/s ] Качают: 1 [ 0 KB/s ]
Размер: 4.96 GB | Добавлен: 1 мес. 17 д. назад | Торрент скачан:43 раза
Смотреть онлайн | Скачать   

27-08-2022 11:59 Видеть Скачать торрент  

Видеть | See
«...»
Год выпуска: 2022
Страна: США
Выпущено: Chernin Entertainment, Endeavor Content
Жанр: Фантастика, боевик, драма
Продолжительность: ~ 00:55:00
Перевод: Профессиональный (многоголосый закадровый) | HDRezka
Субтитры: Русские (форсированные hardsub)

Режиссёр: Андерс Энгстрем

rating

В ролях: Джейсон Момоа, Сильвия Хукс, Хера Хильмар, Кристиан Камарго, Арчи Мадекве, Неста Купер, Ядира Гевара-Прип, Элфри Вудард, Иден Эпштейн, Оливия Ченг, Хун Ли, Том Мисон, Дэйв Батиста, Франц Драмех, Джессика Харпер, Джошуа Генри, Дайо Окенийи, Дамарис Льюис, Алекс Бро, Адам Морс, Люк Хамфри, Мартин Роуч, Нина Кири

Описание: В далёком будущем человеческая раса полностью лишилась зрения. Чтобы выжить, людям пришлось найти новый способ сосуществовать, строить и добывать пищу. Всё меняется, когда в семье бесстрашного воина Бабы Восса рождаются зрячие близнецы. Их появление рискует нарушить хрупкий баланс нового мира и ввергнуть успокоившуюся цивилизацию в хаос.

Качество: WEB-DLRip
Формат: AVI

Видео: XviD, 704x336 (2,11), 23.976 fps, ~1500 kbps
Аудио Rus: AC-3, 48 kHz, 2 ch, 192 kbps
скриншот  скриншот  скриншот  скриншот  скриншот  

Полное имя : See.S03.WEB-DLRip.HDRezka\See.S03E01.WEB-DLRip.HDRezka.JuSSiKa.avi
Формат : AVI
Формат/Информация : Audio Video Interleave
Размер файла : 710 Мбайт
Продолжительность : 58 м. 0 с.
Общий поток : 1712 Кбит/сек
Программа кодирования : VirtualDubMod 1.5.10.3 (build 2550/release)
Библиотека кодирования : VirtualDubMod build 2550/release

Видео
Идентификатор : 0
Формат : MPEG-4 Visual
Профиль формата : Advanced [email protected]
Настройки формата : BVOP1
Параметр BVOP формата : 1
Параметр QPel формата : Нет
Параметр GMC формата : Без точки перехода
Параметр матрицы формата : Default (H.263)
Идентификатор кодека : XVID
Идентификатор кодека/Подсказка : XviD
Продолжительность : 58 м. 0 с.
Битрейт : 1510 Кбит/сек
Ширина : 704 пикселя
Высота : 336 пикселей
Соотношение сторон : 2,095
Частота кадров : 23,976 (24000/1001) кадра/сек
Цветовое пространство : YUV
Субдискретизация насыщенности : 4:2:0
Битовая глубина : 8 бит
Тип развёртки : Прогрессивная
Метод сжатия : С потерями
Бит/(Пиксели*Кадры) : 0.266
Размер потока : 626 Мбайт (88%)
Библиотека кодирования : XviD 1.2.1 (UTC 2008-12-04)

Аудио
Идентификатор : 1
Формат : AC-3
Формат/Информация : Audio Coding 3
Параметр Endianness формата : Big
Идентификатор кодека : 2000
Продолжительность : 58 м. 0 с.
Вид битрейта : Постоянный
Битрейт : 192 Кбит/сек
Каналы : 2 канала
Расположение каналов : Front: L R
Частота : 48,0 КГц
Частота кадров : 31,250 кадров/сек (1536 SPF)
Битовая глубина : 16 бит
Метод сжатия : С потерями
Размер потока : 79,7 Мбайт (11%)
Выравнивание : Разделение по промежуткам
Продолжительность промежутка : 42 мс. (1,00 видеокадр)
Время предзагрузки промежутка : 500 мс.
ServiceKind/String : Complete Main

Когда раздача ведётся путём добавления новых серий, при каждом добавлении создётся новый торрент. Чтобы начать докачку новой серии, пользователям необходимо сделать следующее:
(1) остановить скачивание,
(2) удалить старый торрент у себя из клиента (старые серии удалять не надо),
(3) скачать новый торрент и запустить его у себя в клиенте вместо старого, при этом указать клиенту путь в старую папку, куда и должно происходить скачивание новых серий.
Ваш клиент при этом должен произвести хеширование (проверку) старой папки (если не производит сам - помогите ему сделать это), и будет докачивать только те серии, которых у вас ещё нет. Старые серии при этом не удаляются, а продолжают раздаваться!
Eсли вы уже удалили старые серии, то предотвратить повторную закачку старых серий можно, отжав галочку в соответсвующих местах при запуске нового торрента. По возможности, желательно не удалять старые серии как можно дольше, чтобы релизёр не столько продолжал раздавать старые серии, а смог сконцентрироваться на новых.




Скачать Видеть через торрент https://i120.fastpic.org/big/2022/0826/f1/25a630472355770ee68ed95fe83b17f1.jpeg Скачать, смотреть онлайн Видеть бесплантно в хорошем качестве Описание: В далёком будущем человеческая раса полностью лишилась зрения. Чтобы выжить, людям пришлось найти новый способ сосуществовать, ... 5.5 10 16
Торрент: Зарегистрирован [2022-10-16 07:42] · скачан: 43 раз
Статус: √ проверено
Размер: 4.96 GB
Как cкачать? Как скачать Видеть через торрент | UTorrent

% Раздел Тема Автор DL S | L
Зарубежные сериалы [ 33.25 GB ] Видеть / See / Сезон: 3 / Серии: 1-8 из 8 | Пифагор | 1080p killermax2013 Скачать
7 | 1
Зарубежные сериалы [ 12.64 GB ] Видеть / See / Сезон: 3 / Серии: 1-8 из 8 | Пифагор | 720p bober100 Скачать
3 | 1
Зарубежные сериалы [ 4.99 GB ] Видеть / See / Сезон: 3 / Серии: 1-8 из 8 | Пифагор | DLRip bober100 Скачать
4 | 0
Зарубежные сериалы [ 15.31 GB ] Видеть / See / Сезон: 3 / Серии: 1-8 из 8 | Пифагор | 1080p killermax2013 Скачать
3 | 1
Зарубежные сериалы [ 10.96 GB ] Видеть / See / Сезон: 3 / Серии: 1- из 8 | Пифагор | 2160p bober100 Скачать
1 | 0
T Зарубежные сериалы [ 9.23 GB ] Видеть / See / Сезон: 3 / Серии: 1-8 из 8 | ColdFilm | 720p bober100 Скачать
2 | 0
Зарубежные сериалы [ 6.3 GB ] Видеть / See / Сезон: 2 / Серии: 1-8 из 8 | LostFilm | DLRip bober100 Скачать
5 | 0

28-11-2019 20:33  


Отключить вcю реклaмy на сайте, в т.ч. и в плеере онлайн просмотра!

    Дорогой пользователь! Огромная просьба, поблагодарите релизера, оцените раздачу и оставьте свои комментарий, если Вы скачали Видеть через торрент бесплатно!!
    Комментировать посты могут только пользователи прошедшие не сложную регистрацию
    Показать сообщения:    


    Видеть через торрент
    Скачать бесплатно Видеть
    Видеть скачать торрент
    Видеть смотреть онлайн
    Cкачать фильм Видеть бесплатно
    Видеть скачать торрент в хорошем качестве
    Видеть смотреть онлайн бесплатно в хорошем качестве
    Вы не можете начинать темы
    Вы не можете отвечать на сообщения
    Вы не можете редактировать свои сообщения
    Вы не можете удалять свои сообщения
    Вы не можете голосовать в опросах
    Вы не можете прикреплять файлы к сообщениям
    Вы можете скачивать файлы
    Видеть / See / Сезон: 3 / Серии: 1-8 из 8 [2022, Фантастика, боевик, драма, WEB-DLRip] MVO [HDRezka] смотреть онлайн, скачать торрент picoco.icu