Доктор Стрэндж

Лицензия

Добыча

Дубляж

Уэнсдэй

1 сезон

Тор

Дубляж

В эфире

Дубляж

Там, где раки поют

MVO

Властелин колец

1 сезон

Deluxe

pack

Рекомендуем

30

Пиратка

ВАЖНО

ВАЖНО

Ghostwire

Пиратка

jed

RePack

nioh2

RePack

RDR2

RePack

NEED FOR SPEED™ PAYBACK

RePack

скачать торрент

Кинопоиск HD

Острые козырьки 6 сезон

6 сезон

FAR CRY 6

RePack

скачать торрент

Лицензия

скачать торрент

MVO

1

1 сезон

скачать торрент

1 сезон

скачать торрент

Лицензия

  

Нет / Nope (Джордан Пил) [2022, Ужасы, фантастика, триллер, детектив, UHD WEB-DL 2160p] MVO [Jaskier]

Нет через торрент pb.wtf

Раздают: 2 [ 0 KB/s ]
Размер: 14.35 GB | Добавлен: 3 мес. 9 д. назад | Торрент скачан:213 раз
Смотреть онлайн | Скачать   

28-08-2022 01:27 Нет Скачать торрент  

Нет
Nope

Год выпуска: 2022
Страна: США, Япония
Выпущено: Universal Pictures, Dentsu, Monkeypaw Productions
Жанр: Ужасы, фантастика, триллер, детектив
Продолжительность: 02:10:29
Перевод: Профессиональный (многоголосый) | Jaskier
Субтитры: Русские (Full), английские

Режиссер: Джордан Пил

rating

В ролях: Дэниэл Калуя, Кеке Палмер, Стивен Ян, Брэндон Переа, Майкл Уинкотт, Ренн Шмидт, Кит Дэвид, Девон Грайе, Терри Нотари, Барби Феррейра

Описание: Жители лошадиной фермы в Калифорнии сталкиваются с чем-то поистине жутким и невообразимым. «Нет» — новый авторский хоррор от создателя «Прочь» Джордана Пила..

Качество: UHD WEB-DL 2160p
Формат: MKV

Видео: 3840x1740 at 23.976 fps, MPEG-H HEVC HDR ~ 14500 kbps avg
Аудио #01: 48 kHz, AC3, 5.1, 444 Kbps | Профессиональный многоголосый | Jaskier | RUS |
Аудио #02: 48 kHz, E-AC3+Atmos, 5.1, 768 Kbps | Оригинал | ENG |
скриншот  скриншот  скриншот  скриншот  скриншот  скриншот  

General
Unique ID: 109250881381994921041665766631850274958 (0x5230F452EE5CB9B8D37FA8E7D162708E)
Complete name: F:VideoNope.2022.WEB-DL.2160p.HDR.seleZen.mkv
Format: Matroska
Format version: Version 4
File size: 14.3 GiB
Duration: 2 h 10 min
Overall bit rate: 15.7 Mb/s
Movie name: Nope 2022 from seleZen
Encoded date: UTC 2022-08-27 23:28:13
Writing application: mkvmerge v59.0.0 ('Shining Star') 64-bit
Writing library: libebml v1.4.2 + libmatroska v1.6.4

Video
ID: 1
Format: HEVC
Format/Info: High Efficiency Video Coding
Format profile: Main [email protected]@High
HDR format: SMPTE ST 2086, HDR10 compatible
Codec ID: V_MPEGH/ISO/HEVC
Duration: 2 h 10 min
Bit rate: 14.5 Mb/s
Width: 3 840 pixels
Height: 1 740 pixels
Display aspect ratio: 2.2:1
Frame rate mode: Constant
Frame rate: 23.976 FPS
Color space: YUV
Chroma subsampling: 4:2:0 (Type 2)
Bit depth: 10 bits
Bits/(Pixel*Frame): 0.091
Stream size: 13.2 GiB (92%)
Language: English
Default: Yes
Forced: No
Color range: Limited
Color primaries: BT.2020
Transfer characteristics: PQ
Matrix coefficients: BT.2020 non-constant
Mastering display color pri: BT.2020
Mastering display luminance: min: 0.0050 cd/m2, max: 1000 cd/m2
Maximum Content Light Level: 275 cd/m2
Maximum Frame-Average Light: 167 cd/m2

Audio #1
ID: 2
Format: AC-3
Format/Info: Audio Coding 3
Commercial name: Dolby Digital
Codec ID: A_AC3
Duration: 2 h 10 min
Bit rate mode: Constant
Bit rate: 448 kb/s
Channel(s): 6 channels
Channel layout: L R C LFE Ls Rs
Sampling rate: 48.0 kHz
Frame rate: 31.250 FPS (1536 SPF)
Compression mode: Lossy
Stream size: 418 MiB (3%)
Title: MVO [Jaskier]
Language: Russian
Service kind: Complete Main
Default: Yes
Forced: Yes

Audio #2
ID: 3
Format: E-AC-3 JOC
Format/Info: Enhanced AC-3 with Joint Object Coding
Commercial name: Dolby Digital Plus with Dolby Atmos
Codec ID: A_EAC3
Duration: 2 h 10 min
Bit rate mode: Constant
Bit rate: 768 kb/s
Channel(s): 6 channels
Channel layout: L R C LFE Ls Rs
Sampling rate: 48.0 kHz
Frame rate: 31.250 FPS (1536 SPF)
Compression mode: Lossy
Stream size: 717 MiB (5%)
Title: Original
Language: English
Service kind: Complete Main
Default: No
Forced: No
Complexity index: 16
Number of dynamic objects: 15
Bed channel count: 1 channel
Bed channel configuration: LFE

Text #1
ID: 4
Format: UTF-8
Codec ID: S_TEXT/UTF8
Codec ID/Info: UTF-8 Plain Text
Duration: 2 h 3 min
Bit rate: 73 b/s
Frame rate: 0.205 FPS
Count of elements: 1526
Stream size: 66.6 KiB (0%)
Title: Full [FOCS]
Language: Russian
Default: No
Forced: No

Text #2
ID: 5
Format: UTF-8
Codec ID: S_TEXT/UTF8
Codec ID/Info: UTF-8 Plain Text
Duration: 2 h 9 min
Bit rate: 46 b/s
Frame rate: 0.214 FPS
Count of elements: 1662
Stream size: 43.8 KiB (0%)
Title: Full
Language: English
Default: No
Forced: No

Text #3
ID: 6
Format: UTF-8
Codec ID: S_TEXT/UTF8
Codec ID/Info: UTF-8 Plain Text
Duration: 2 h 10 min
Bit rate: 61 b/s
Frame rate: 0.280 FPS
Count of elements: 2188
Stream size: 58.8 KiB (0%)
Title: SDH
Language: English
Default: No
Forced: No

Menu
00:00:00.000: Chapter 01
00:08:10.490: Chapter 02
00:16:51.344: Chapter 03
00:25:32.949: Chapter 04
00:33:42.939: Chapter 05
00:40:01.276: Chapter 06
00:48:41.171: Chapter 07
00:57:38.291: Chapter 08
01:04:25.115: Chapter 09
01:12:37.023: Chapter 10
01:20:25.492: Chapter 11
01:29:20.777: Chapter 12
01:36:03.972: Chapter 13
01:45:07.432: Chapter 14
01:53:34.689: Chapter 15
02:01:52.687: Chapter 16




Скачать Нет через торрент https://i120.fastpic.org/big/2022/0828/be/797bb2fc04f2c8a1d9fe5a2d5cdf77be.jpg Скачать, смотреть онлайн Нет бесплантно в хорошем качестве Описание: Жители лошадиной фермы в Калифорнии сталкиваются с чем-то поистине жутким и невообразимым. «Нет» — новый авторский хоррор от ... 8.4 10 5
Торрент: Зарегистрирован [2022-08-28 01:27] · скачан: 213 раз
Статус: √ проверено
Размер: 14.35 GB
Как cкачать? Как скачать Нет через торрент | UTorrent

% Раздел Тема Автор DL S | L
Фильмы [HD 720p, 1080p] (Хороший звук DUB, MVO) [ 11.94 GB ] Нет / Nope | Jaskier | 1080p bober100 Скачать
4 | 0
Фильмы [HD 720p, 1080p] (Хороший звук DUB, MVO) [ 4.03 GB ] Нет / Nope | Jaskier | 720p bober100 Скачать
3 | 0
Фильмы 2022 [DVDrip, WEB-DLRip, HDrip] (DUB, MVO) [ 2.85 GB ] Нет / Nope | Jaskier | DLRip-AVC bober100 Скачать
4 | 0
Фильмы 2022 [DVDrip, WEB-DLRip, HDrip] (DUB, MVO) [ 2.37 GB ] Нет / Nope | Jaskier | DLRip-AVC Lithuania Скачать
3 | 0
Фильмы (WEB-DL 720p, 1080p) [ 7.18 GB ] Нет / Nope | Jaskier | 1080p bober100 Скачать
5 | 0
Фильмы 2022 [DVDrip, WEB-DLRip, HDrip] (DUB, MVO) [ 1.46 GB ] Нет / Nope | Jaskier | DLRip bober100 Скачать
2 | 0

28-11-2019 20:33  


Отключить вcю реклaмy на сайте, в т.ч. и в плеере онлайн просмотра!

    Дорогой пользователь! Огромная просьба, поблагодарите релизера, оцените раздачу и оставьте свои комментарий, если Вы скачали Нет через торрент бесплатно!!
    Комментировать посты могут только пользователи прошедшие не сложную регистрацию
    Показать сообщения:    


    Нет через торрент
    Скачать бесплатно Нет
    Нет скачать торрент
    Нет смотреть онлайн
    Cкачать фильм Нет бесплатно
    Нет скачать торрент в хорошем качестве
    Нет смотреть онлайн бесплатно в хорошем качестве
    Вы не можете начинать темы
    Вы не можете отвечать на сообщения
    Вы не можете редактировать свои сообщения
    Вы не можете удалять свои сообщения
    Вы не можете голосовать в опросах
    Вы не можете прикреплять файлы к сообщениям
    Вы можете скачивать файлы
    Нет / Nope [2022, Ужасы, фантастика, триллер, детектив, UHD WEB-DL 2160p] MVO [Jaskier] смотреть онлайн, скачать торрент picoco.icu