Доктор Стрэндж

Лицензия

Добыча

Дубляж

Уэнсдэй

1 сезон

Тор

Дубляж

В эфире

Дубляж

Там, где раки поют

MVO

Властелин колец

1 сезон

Deluxe

pack

Рекомендуем

30

Пиратка

ВАЖНО

ВАЖНО

Ghostwire

Пиратка

jed

RePack

nioh2

RePack

RDR2

RePack

NEED FOR SPEED™ PAYBACK

RePack

скачать торрент

Кинопоиск HD

Острые козырьки 6 сезон

6 сезон

FAR CRY 6

RePack

скачать торрент

Лицензия

скачать торрент

MVO

1

1 сезон

скачать торрент

1 сезон

скачать торрент

Лицензия

  

Вампир / Vampir (Бранко Томович) [2021, Ужасы, драма, детектив, WEB-DL 1080p] MVO [Кинопоиск HD]

Вампир через торрент pb.wtf

Раздают: 1 [ 0 KB/s ]
Размер: 3.4 GB | Добавлен: 3 мес. 8 д. назад | Торрент скачан:138 раз
Смотреть онлайн | Скачать   

28-08-2022 01:43 Вампир Скачать торрент  

Вампир
Vampir

Год выпуска: 2021
Страна: Великобритания, Сербия, Германия
Студия: Dinaric Alps Productions, Red Marked Films, Vickermann Films
Жанр: Ужасы, драма, детектив
Продолжительность: 01:31:30
Перевод: Профессиональный (многоголосый) | Кинопоиск HD
Субтитры: отсутствуют

Режиссер: Бранко Томович

rating

В ролях: Бранко Томович, Горица Регодич, Йоаким Тасич, Ева Рас, Юдит Георги, Неманья Байич, Зорица Крунич, Сладьяна Радивоевич, Милош Милошевич, Ивана Вельович, Милоджика Секулярац, Теодора Биляна Эрик, Марко Попадич, Иван Симонович, Душан Йович, Жан-Луи Александр, Радослав Джорджевич, Невена Антониевич, Ивана Яковлевич, Милош Вучкович, Сэнна Инглунд, Нина Нович, Дина Викерманн

Описание: Главный герой Арнаут вынужден скрываться в Сербии из-за того, что стал свидетелем преступления в Лондоне. Он устраивается сторожем на небольшое кладбище в отдаленной деревушке. Вскоре Арнаут замечает странности, присущие местным жителям, а по ночам его мучают одни и те же кошмары — к нему является пожилая женщина Баба Драга, которая зовет героя с собой в темноту.

Качество: WEB-DL 1080p
Формат: MKV

Видео: MPEG-4 AVC, 1920x804, 6000 Кbit/s, 25.000 fps
Аудио #01: 48 kHz, AC3, 5.1, 448 Kbps | Профессиональный многоголосый | Кинопоиск HD | RUS |
Аудио #02: 48 kHz, E-AC3, 5.1, 448 Kbps | Профессиональный многоголосый | Кинопоиск HD | RUS |
скриншот  скриншот  скриншот  скриншот  

General
Unique ID: 105772829618057841156436982043781329882 (0x4F931B21ECB41D0306AE18970A5F73DA)
Complete name: F:VideoVampir.2021.WEB-DL.1080p.seleZen.mkv
Format: Matroska
Format version: Version 4
File size: 3.40 GiB
Duration: 1 h 31 min
Overall bit rate: 5 312 kb/s
Movie name: Vampir 2021 from seleZen
Encoded date: UTC 2022-08-28 00:16:38
Writing application: mkvmerge v59.0.0 ('Shining Star') 64-bit
Writing library: libebml v1.4.2 + libmatroska v1.6.4

Video
ID: 1
Format: AVC
Format/Info: Advanced Video Codec
Format profile: [email protected]
Format settings: CABAC / 5 Ref Frames
Format settings, CABAC: Yes
Format settings, Reference: 5 frames
Codec ID: V_MPEG4/ISO/AVC
Duration: 1 h 31 min
Bit rate: 4 414 kb/s
Nominal bit rate: 6 000 kb/s
Width: 1 920 pixels
Height: 804 pixels
Display aspect ratio: 2.40:1
Frame rate mode: Constant
Frame rate: 25.000 FPS
Color space: YUV
Chroma subsampling: 4:2:0
Bit depth: 8 bits
Scan type: Progressive
Bits/(Pixel*Frame): 0.114
Stream size: 2.82 GiB (83%)
Writing library: x264 core 157
Encoding settings: cabac=1 / ref=5 / deblock=1:0:0 / analyse=0x3:0x133 / me=umh / subme=10 / psy=1 / psy_rd=1.00:0.00 / mixed_ref=1 / me_range=24 / chroma_me=1 / trellis=2 / 8x8dct=1 / cqm=0 / deadzone=21, 11 / fast_pskip=1 / chroma_qp_offset=-2 / threads=25 / lookahead_threads=4 / sliced_threads=0 / nr=0 / decimate=1 / interlaced=0 / bluray_compat=0 / stitchable=1 / constrained_intra=0 / bframes=8 / b_pyramid=2 / b_adapt=2 / b_bias=0 / direct=3 / weightb=1 / open_gop=0 / weightp=2 / keyint=250 / keyint_min=25 / scenecut=40 / intra_refresh=0 / rc_lookahead=60 / rc=abr / mbtree=1 / bitrate=6000 / ratetol=1.0 / qcomp=0.60 / qpmin=0 / qpmax=69 / qpstep=4 / vbv_maxrate=6600 / vbv_bufsize=24000 / nal_hrd=none / filler=0 / ip_ratio=1.40 / aq=1:1.00
Language: English
Default: Yes
Forced: No

Audio #1
ID: 2
Format: AC-3
Format/Info: Audio Coding 3
Commercial name: Dolby Digital
Codec ID: A_AC3
Duration: 1 h 31 min
Bit rate mode: Constant
Bit rate: 448 kb/s
Channel(s): 6 channels
Channel layout: L R C LFE Ls Rs
Sampling rate: 48.0 kHz
Frame rate: 31.250 FPS (1536 SPF)
Compression mode: Lossy
Stream size: 293 MiB (8%)
Title: MVO [Kinopoisk HD]
Language: Russian
Service kind: Complete Main
Default: Yes
Forced: Yes

Audio #2
ID: 3
Format: E-AC-3
Format/Info: Enhanced AC-3
Commercial name: Dolby Digital Plus
Codec ID: A_EAC3
Duration: 1 h 31 min
Bit rate mode: Constant
Bit rate: 448 kb/s
Channel(s): 6 channels
Channel layout: L R C LFE Ls Rs
Sampling rate: 48.0 kHz
Frame rate: 31.250 FPS (1536 SPF)
Compression mode: Lossy
Stream size: 293 MiB (8%)
Title: MVO [Kinopoisk HD]
Language: Russian
Service kind: Complete Main
Default: No
Forced: No




Скачать Вампир через торрент https://i120.fastpic.org/big/2022/0828/8f/4d1d073494c4793ee1ab87c5dd77228f.jpg Скачать, смотреть онлайн Вампир бесплантно в хорошем качестве Описание: Главный герой Арнаут вынужден скрываться в Сербии из-за того, что стал свидетелем преступления в Лондоне. Он устраивается ... 10 10 2
Торрент: Зарегистрирован [2022-08-28 01:43] · скачан: 138 раз
Статус: √ проверено
Размер: 3.4 GB
Как cкачать? Как скачать Вампир через торрент | UTorrent

% Раздел Тема Автор DL S | L
Фильмы 2021 [DVDrip, WEB-DLRip, HDrip] (DUB, MVO) [ 1.46 GB ] Вампир / Vampir | КиноПоиск HD | DLRip bober100 Скачать
1 | 0
Фильмы 2021 [DVDrip, WEB-DLRip, HDrip] (DUB, MVO) [ 747 MB ] Вампир / Vampir | КиноПоиск HD | DLRip bober100 Скачать
1 | 0
Фильмы 2021 [DVDrip, WEB-DLRip, HDrip] (DUB, MVO) [ 1.33 GB ] Вампир / Vampir | Кинопоиск HD | DLRip-AVC bober100 Скачать
2 | 0
Фильмы 2021 [DVDrip, WEB-DLRip, HDrip] (DUB, MVO) [ 715 MB ] Вампир / Vampir | iTunes" | DLRip MVO закадровый "iTunes" coc900 Скачать
1 | 0

28-11-2019 20:33  


Отключить вcю реклaмy на сайте, в т.ч. и в плеере онлайн просмотра!

28-08-2022 06:53 Вампир Скачать торрент  

Баба Драга?? все ясно пойду дальше



13-09-2022 20:01 Вампир Скачать торрент  

Хорошее кино. Даже страшно иногда



    Дорогой пользователь! Огромная просьба, поблагодарите релизера, оцените раздачу и оставьте свои комментарий, если Вы скачали Вампир через торрент бесплатно!!
    Комментировать посты могут только пользователи прошедшие не сложную регистрацию
    Показать сообщения:    


    Вампир через торрент
    Скачать бесплатно Вампир
    Вампир скачать торрент
    Вампир смотреть онлайн
    Cкачать фильм Вампир бесплатно
    Вампир скачать торрент в хорошем качестве
    Вампир смотреть онлайн бесплатно в хорошем качестве
    Вы не можете начинать темы
    Вы не можете отвечать на сообщения
    Вы не можете редактировать свои сообщения
    Вы не можете удалять свои сообщения
    Вы не можете голосовать в опросах
    Вы не можете прикреплять файлы к сообщениям
    Вы можете скачивать файлы
    Вампир / Vampir [2021, Ужасы, драма, детектив, WEB-DL 1080p] MVO [Кинопоиск HD] смотреть онлайн, скачать торрент picoco.icu