Доктор Стрэндж

Лицензия

Добыча

Дубляж

Уэнсдэй

1 сезон

Тор

Дубляж

В эфире

Дубляж

Там, где раки поют

MVO

Властелин колец

1 сезон

Deluxe

pack

Рекомендуем

30

Пиратка

ВАЖНО

ВАЖНО

Ghostwire

Пиратка

jed

RePack

nioh2

RePack

RDR2

RePack

NEED FOR SPEED™ PAYBACK

RePack

скачать торрент

Кинопоиск HD

Острые козырьки 6 сезон

6 сезон

FAR CRY 6

RePack

скачать торрент

Лицензия

скачать торрент

MVO

1

1 сезон

скачать торрент

1 сезон

скачать торрент

Лицензия

  

Крутой взлёт / Moonshot (Кристофер Боррелли) [2022, Фантастика, мелодрама, комедия, UHD WEB-DL 2160p] Дубляж [IYUNO SDI Group]

Крутой взлёт через торрент pb.wtf

Размер: 13.79 GB | Добавлен: 3 мес. 9 д. назад | Торрент скачан:46 раз
Смотреть онлайн | Скачать   

28-08-2022 01:51 Крутой взлёт Скачать торрент  

Крутой взлёт
Moonshot

Год выпуска: 2022
Страна: США
Выпущено: Warner Bros. Pictures, New Line Cinema, HBO Max, Berlanti Productions, Entertainment 360, Good Universe
Жанр: Фантастика, мелодрама, комедия
Продолжительность: 01:44:10
Перевод: Дублированный | IYUNO SDI Group
Субтитры: Русские (Forced, full), английские

Режиссер: Кристофер Боррелли

rating

В ролях: Коул Спроус, Лана Кондор, Мэйсон Гудинг, Эмили Радд, Кристин Адамс, Мишель Бюто, Зак Брафф, Камерон Эспозито, Сунита Дешпандэ, Питер Вудворд, Хенсон Милам, Лукас Гейдж, Сара Стайп, Кэбби Бордерс, Дрэз Райан

Описание: Марс колонизирован людьми и на нём проживает элита человеческого общества. Студенты колледжа тайком пробираются на борт космического корабля, который отправляется на Марс, чтобы воссоединиться со своими близкими.

Качество: UHD WEB-DL 2160p
Формат: MKV

Видео: 3840x2160 at 23.976 fps, MPEG-H HEVC HDR ~ 17800 kbps avg
Аудио #01: 48 kHz, AC3, 5.1, 384 Kbps | Дублированный | Iyuno | RUS |
Аудио #02: 48 kHz, E-AC3+Atmos, 5.1, 768 Kbps | Оригинал | ENG |
скриншот  скриншот  скриншот  скриншот  

General
Unique ID : 199883611279328081759748702306295792439 (0x96602EE885C1DFD94D6D68E47B62C337)
Complete name : F:VideoMoonshot.2022.HMAX.WEB-DL.2160p.HDR.seleZen.mkv
Format : Matroska
Format version : Version 4
File size : 13.8 GiB
Duration : 1 h 44 min
Overall bit rate : 19.0 Mb/s
Movie name : Moonshot 2022 from seleZen
Encoded date : UTC 2022-08-27 20:55:32
Writing application : mkvmerge v59.0.0 ('Shining Star') 64-bit
Writing library : libebml v1.4.2 + libmatroska v1.6.4

Video
ID : 1
Format : HEVC
Format/Info : High Efficiency Video Coding
Format profile : Main [email protected]@Main
HDR format : SMPTE ST 2086, HDR10 compatible
Codec ID : V_MPEGH/ISO/HEVC
Duration : 1 h 44 min
Bit rate : 17.8 Mb/s
Width : 3 840 pixels
Height : 2 160 pixels
Display aspect ratio : 16:9
Frame rate mode : Constant
Frame rate : 23.976 (24000/1001) FPS
Color space : YUV
Chroma subsampling : 4:2:0
Bit depth : 10 bits
Bits/(Pixel*Frame) : 0.090
Stream size : 13.0 GiB (94%)
Writing library : x265 3.4hy:[Linux][GCC 7.5.0][64 bit] 10bit
Encoding settings : cpuid=1111039 / frame-threads=1 / wpp / no-pmode / no-pme / no-psnr / no-ssim / log-level=2 / input-csp=1 / input-res=3840x2160 / interlace=0 / total-frames=0 / level-idc=0 / high-tier=1 / uhd-bd=0 / ref=4 / no-allow-non-conformance / repeat-headers / annexb / no-aud / no-hrd / info / hash=0 / no-temporal-layers / no-open-gop / min-keyint=96 / keyint=96 / gop-lookahead=0 / bframes=3 / b-adapt=2 / b-pyramid / bframe-bias=0 / rc-lookahead=25 / lookahead-slices=4 / scenecut=40 / hist-scenecut=0 / radl=0 / no-splice / no-intra-refresh / ctu=64 / min-cu-size=8 / rect / no-amp / max-tu-size=32 / tu-inter-depth=1 / tu-intra-depth=1 / limit-tu=0 / rdoq-level=2 / dynamic-rd=0.00 / no-ssim-rd / signhide / no-tskip / nr-intra=0 / nr-inter=0 / no-constrained-intra / strong-intra-smoothing / max-merge=3 / limit-refs=3 / limit-modes / me=3 / subme=3 / merange=57 / temporal-mvp / no-frame-dup / no-hme / weightp / no-weightb / no-analyze-src-pics / deblock=0:0 / sao / no-sao-non-deblock / rd=4 / selective-sao=4 / no-early-skip / rskip / no-fast-intra / no-tskip-fast / no-cu-lossless / no-b-intra / no-splitrd-skip / rdpenalty=0 / psy-rd=2.00 / psy-rdoq=1.00 / no-rd-refine / no-lossless / cbqpoffs=0 / crqpoffs=0 / rc=abr / bitrate=18000 / qcomp=0.60 / qpstep=4 / stats-write=0 / stats-read=2 / cplxblur=20.0 / qblur=0.5 / vbv-maxrate=24500 / vbv-bufsize=24500 / vbv-init=0.6 / vbv-end=0.6 / vbv-end-fr-adj=0.0 / ipratio=1.40 / pbratio=1.30 / aq-mode=2 / aq-strength=1.00 / cutree / zone-count=0 / no-strict-cbr / qg-size=32 / no-rc-grain / qpmax=69 / qpmin=0 / no-const-vbv / sar=0 / overscan=0 / videoformat=5 / range=0 / colorprim=9 / transfer=16 / colormatrix=9 / chromaloc=0 / display-window=0 / master-display=G(13250, 34500)B(7500, 3000)R(34000, 16000)WP(15635, 16450)L(10000000, 1) / cll=705, 99 / min-luma=0 / max-luma=1023 / log2-max-poc-lsb=8 / vui-timing-info / vui-hrd-info / no-concatenation / slices=1 / no-opt-qp-pps / no-opt-ref-list-length-pps / no-multi-pass-opt-rps / scenecut-bias=0.05 / hist-threshold=0.01 / no-opt-cu-delta-qp / no-aq-motion / hdr10 / no-hdr10-opt / no-dhdr10-opt / no-idr-recovery-sei / analysis-reuse-level=0 / analysis-save-reuse-level=0 / analysis-load-reuse-level=0 / scale-factor=0 / refine-intra=0 / refine-inter=0 / refine-mv=1 / refine-ctu-distortion=0 / no-limit-sao / ctu-info=0 / no-lowpass-dct / refine-analysis-type=0 / copy-pic=1 / max-ausize-factor=1.0 / no-dynamic-refine / no-single-sei / no-hevc-aq / no-svt / no-field / qp-adaptation-range=1.00 / no-scenecut-aware-qpconformance-window-offsets / right=0 / bottom=0 / decoder-max-rate=0
Language : English
Default : No
Forced : No
Color range : Limited
Color primaries : BT.2020
Transfer characteristics : PQ
Matrix coefficients : BT.2020 non-constant
Mastering display color pri: Display P3
Mastering display luminance: min: 0.0001 cd/m2, max: 1000 cd/m2
Maximum Content Light Level: 705 cd/m2
Maximum Frame-Average Light: 99 cd/m2

Audio #1
ID : 2
Format : AC-3
Format/Info : Audio Coding 3
Commercial name : Dolby Digital
Codec ID : A_AC3
Duration : 1 h 44 min
Bit rate mode : Constant
Bit rate : 384 kb/s
Channel(s) : 6 channels
Channel layout : L R C LFE Ls Rs
Sampling rate : 48.0 kHz
Frame rate : 31.250 FPS (1536 SPF)
Compression mode : Lossy
Stream size : 286 MiB (2%)
Title : Дубляж
Language : Russian
Service kind : Complete Main
Default : Yes
Forced : Yes

Audio #2
ID : 3
Format : E-AC-3 JOC
Format/Info : Enhanced AC-3 with Joint Object Coding
Commercial name : Dolby Digital Plus with Dolby Atmos
Codec ID : A_EAC3
Duration : 1 h 44 min
Bit rate mode : Constant
Bit rate : 768 kb/s
Channel(s) : 6 channels
Channel layout : L R C LFE Ls Rs
Sampling rate : 48.0 kHz
Frame rate : 31.250 FPS (1536 SPF)
Compression mode : Lossy
Stream size : 572 MiB (4%)
Title : Original
Language : English
Service kind : Complete Main
Default : No
Forced : No
Complexity index : 16
Number of dynamic objects : 15
Bed channel count : 1 channel
Bed channel configuration : LFE

Text #1
ID : 4
Format : UTF-8
Codec ID : S_TEXT/UTF8
Codec ID/Info : UTF-8 Plain Text
Duration : 1 h 34 min
Bit rate : 5 b/s
Frame rate : 0.017 FPS
Count of elements : 96
Stream size : 4.02 KiB (0%)
Title : Forced
Language : Russian
Default : Yes
Forced : Yes

Text #2
ID : 5
Format : UTF-8
Codec ID : S_TEXT/UTF8
Codec ID/Info : UTF-8 Plain Text
Duration : 1 h 43 min
Bit rate : 123 b/s
Frame rate : 0.266 FPS
Count of elements : 1644
Stream size : 93.5 KiB (0%)
Title : Full
Language : Russian
Default : No
Forced : No

Text #3
ID : 6
Format : UTF-8
Codec ID : S_TEXT/UTF8
Codec ID/Info : UTF-8 Plain Text
Duration : 1 h 38 min
Bit rate : 73 b/s
Frame rate : 0.282 FPS
Count of elements : 1668
Stream size : 53.4 KiB (0%)
Title : Full
Language : English
Default : No
Forced : No

Text #4
ID : 7
Format : UTF-8
Codec ID : S_TEXT/UTF8
Codec ID/Info : UTF-8 Plain Text
Duration : 1 h 41 min
Bit rate : 80 b/s
Frame rate : 0.299 FPS
Count of elements : 1811
Stream size : 59.6 KiB (0%)
Title : SDH
Language : English
Default : No
Forced : No

Menu
00:00:00.000 : Chapter 01
00:07:51.596 : Chapter 02
00:13:55.627 : Chapter 03
00:21:43.136 : Chapter 04
00:27:45.415 : Chapter 05
00:35:25.417 : Chapter 06
00:42:43.396 : Chapter 07
00:51:21.498 : Chapter 08
00:57:52.305 : Chapter 09
01:03:20.133 : Chapter 10
01:09:25.373 : Chapter 11
01:15:04.921 : Chapter 12
01:19:03.159 : Chapter 13
01:27:14.234 : Chapter 14
01:33:49.254 : Chapter 15
01:36:55.607 : Chapter 16




Скачать Крутой взлёт через торрент https://i4-imageban-ru.translate.goog/out/2022/08/27/fd2f20bd47e0901476cda1efc144d806.jpg Скачать, смотреть онлайн Крутой взлёт бесплантно в хорошем качестве Описание: Марс колонизирован людьми и на нём проживает элита человеческого общества. Студенты колледжа тайком пробираются на борт ... 10 10 4
Торрент: Зарегистрирован [2022-08-28 01:51] · скачан: 46 раз
Статус: √ проверено
Размер: 13.79 GB
Как cкачать? Как скачать Крутой взлёт через торрент | UTorrent

% Раздел Тема Автор DL S | L
Фильмы 2022 [DVDrip, WEB-DLRip, HDrip] (DUB, MVO) [ 2.06 GB ] Крутой взлет / Moonshot | DUB | DLRip-AVC Lithuania Скачать
3 | 0
Фильмы (WEB-DL 720p, 1080p) [ 6.84 GB ] Крутой взлёт / Moonshot | DUB | 1080p bober100 Скачать
4 | 0
Фильмы 2022 [DVDrip, WEB-DLRip, HDrip] (DUB, MVO) [ 1.72 GB ] Крутой взлёт / Moonshot | DUB | DLRip-AVC bober100 Скачать
4 | 0

28-11-2019 20:33  


Отключить вcю реклaмy на сайте, в т.ч. и в плеере онлайн просмотра!

    Дорогой пользователь! Огромная просьба, поблагодарите релизера, оцените раздачу и оставьте свои комментарий, если Вы скачали Крутой взлёт через торрент бесплатно!!
    Комментировать посты могут только пользователи прошедшие не сложную регистрацию
    Показать сообщения:    


    Крутой взлёт через торрент
    Скачать бесплатно Крутой взлёт
    Крутой взлёт скачать торрент
    Крутой взлёт смотреть онлайн
    Cкачать фильм Крутой взлёт бесплатно
    Крутой взлёт скачать торрент в хорошем качестве
    Крутой взлёт смотреть онлайн бесплатно в хорошем качестве
    Вы не можете начинать темы
    Вы не можете отвечать на сообщения
    Вы не можете редактировать свои сообщения
    Вы не можете удалять свои сообщения
    Вы не можете голосовать в опросах
    Вы не можете прикреплять файлы к сообщениям
    Вы можете скачивать файлы
    Крутой взлёт / Moonshot [2022, Фантастика, мелодрама, комедия, UHD WEB-DL 2160p] Дубляж [IYUNO SDI Group] смотреть онлайн, скачать торрент picoco.icu