Доктор Стрэндж

Лицензия

Добыча

Дубляж

Уэнсдэй

1 сезон

Тор

Дубляж

В эфире

Дубляж

Там, где раки поют

MVO

Властелин колец

1 сезон

Deluxe

pack

Рекомендуем

30

Пиратка

ВАЖНО

ВАЖНО

Ghostwire

Пиратка

jed

RePack

nioh2

RePack

RDR2

RePack

NEED FOR SPEED™ PAYBACK

RePack

скачать торрент

Кинопоиск HD

Острые козырьки 6 сезон

6 сезон

FAR CRY 6

RePack

скачать торрент

Лицензия

скачать торрент

MVO

1

1 сезон

скачать торрент

1 сезон

скачать торрент

Лицензия

  

Уховёртка / Earwig (Люсиль Хадзихалилович) [2021, Драма, WEB-DL 1080p] Дубляж [Zone Vision / Кинопоиск HD]

Уховёртка через торрент pb.wtf

Размер: 4.9 GB | Добавлен: 3 мес. 7 д. назад | Торрент скачан:45 раз
Смотреть онлайн | Скачать   

28-08-2022 02:11 Уховёртка Скачать торрент  

Уховёртка
Earwig

Год выпуска: 2021
Страна: Великобритания, Франция, Бельгия
Студия: Anti-Worlds, BFI Film Fund, Film 4, Frakas Productions, Petit Film
Жанр: Драма
Продолжительность: 01:54:21
Перевод: Дублированный | Zone Vision | Кинопоиск HD
Субтитры: Русские (Full), английские

Режиссер: Люсиль Хадзихалилович

rating

В ролях: Пол Хилтон, Алекс Лоутер, Романа Хемеларс, Ромола Гарай, Петер Ван ден Бегин, Анастасия Робин, Мари Бос, Изабель де Гертог, Михаэль Пас, Мартен Версе

Описание: Альберта нанимают присматривать за Мией, девушкой с ледяными зубами. Мия никогда не покидает свою квартиру. Однажды Альберту говорят, что он должен подготовить ребенка к отъезду.

Качество: WEB-DL 1080p
Формат: MKV

Видео: MPEG-4 AVC, 1920x1080, 5523 Кbit/s, 24.000 fps
Аудио #01: 48 kHz, AC3, 5.1, 448 Kbps | Дублированный | Zone Vision | RUS |
Аудио #02: 48 kHz, AC3, 2.0, 160 Kbps | Оригинал | ENG |
скриншот  скриншот  скриншот  скриншот  

General
Unique ID : 209773604513440148600830949282683338900 (0x9DD0ED38C463FE3BB38413D7FB94C094)
Complete name : F:VideoEarwig.2021.WEB-DL.1080p.seleZen.mkv
Format : Matroska
Format version : Version 4
File size : 4.90 GiB
Duration : 1 h 54 min
Overall bit rate : 6 134 kb/s
Movie name : Earwig 2021 from seleZen
Encoded date : UTC 2022-08-27 19:41:32
Writing application : mkvmerge v59.0.0 ('Shining Star') 64-bit
Writing library : libebml v1.4.2 + libmatroska v1.6.4

Video
ID : 1
Format : AVC
Format/Info : Advanced Video Codec
Format profile : [email protected]
Format settings : CABAC / 4 Ref Frames
Format settings, CABAC : Yes
Format settings, Reference : 4 frames
Codec ID : V_MPEG4/ISO/AVC
Duration : 1 h 54 min
Bit rate : 5 523 kb/s
Width : 1 920 pixels
Height : 1 080 pixels
Display aspect ratio : 16:9
Frame rate mode : Constant
Frame rate : 24.000 FPS
Color space : YUV
Chroma subsampling : 4:2:0
Bit depth : 8 bits
Scan type : Progressive
Bits/(Pixel*Frame) : 0.111
Stream size : 4.41 GiB (90%)
Language : Russian
Default : Yes
Forced : No

Audio #1
ID : 2
Format : AC-3
Format/Info : Audio Coding 3
Commercial name : Dolby Digital
Codec ID : A_AC3
Duration : 1 h 54 min
Bit rate mode : Constant
Bit rate : 448 kb/s
Channel(s) : 6 channels
Channel layout : L R C LFE Ls Rs
Sampling rate : 48.0 kHz
Frame rate : 31.250 FPS (1536 SPF)
Compression mode : Lossy
Stream size : 366 MiB (7%)
Title : Дубляж
Language : Russian
Service kind : Complete Main
Default : Yes
Forced : Yes

Audio #2
ID : 3
Format : AC-3
Format/Info : Audio Coding 3
Commercial name : Dolby Digital
Codec ID : A_AC3
Duration : 1 h 54 min
Bit rate mode : Constant
Bit rate : 160 kb/s
Channel(s) : 2 channels
Channel layout : L R
Sampling rate : 48.0 kHz
Frame rate : 31.250 FPS (1536 SPF)
Compression mode : Lossy
Stream size : 131 MiB (3%)
Title : Original
Language : English
Service kind : Complete Main
Default : No
Forced : No

Text #1
ID : 4
Format : UTF-8
Codec ID : S_TEXT/UTF8
Codec ID/Info : UTF-8 Plain Text
Duration : 1 h 49 min
Bit rate : 7 b/s
Frame rate : 0.022 FPS
Count of elements : 147
Stream size : 5.93 KiB (0%)
Title : Full
Language : Russian
Default : Yes
Forced : Yes

Text #2
ID : 5
Format : UTF-8
Codec ID : S_TEXT/UTF8
Codec ID/Info : UTF-8 Plain Text
Duration : 1 h 25 min
Bit rate : 5 b/s
Frame rate : 0.028 FPS
Count of elements : 144
Stream size : 3.63 KiB (0%)
Title : Full
Language : English
Default : No
Forced : No




Скачать Уховёртка через торрент https://i120.fastpic.org/big/2022/0827/4c/0a1f7c69ac7235edb5f9004a415b684c.jpg Скачать, смотреть онлайн Уховёртка бесплантно в хорошем качестве Описание: Альберта нанимают присматривать за Мией, девушкой с ледяными зубами. Мия никогда не покидает свою квартиру. Однажды Альберту ... 10 10 2
Торрент: Зарегистрирован [2022-08-28 02:11] · скачан: 45 раз
Статус: √ проверено
Размер: 4.9 GB
Как cкачать? Как скачать Уховёртка через торрент | UTorrent

% Раздел Тема Автор DL S | L
Фильмы (WEB-DL 720p, 1080p) [ 2.45 GB ] Уховёртка / Earwig | DUB | 720p bober100 Скачать
4 | 0
Фильмы 2021 [DVDrip, WEB-DLRip, HDrip] (DUB, MVO) [ 1.46 GB ] Уховёртка / Earwig | DUB | DLRip bober100 Скачать
1 | 0

28-11-2019 20:33  


Отключить вcю реклaмy на сайте, в т.ч. и в плеере онлайн просмотра!

28-08-2022 20:13 Уховёртка Скачать торрент  

по отззывам -никто досмотреть не смог



    Дорогой пользователь! Огромная просьба, поблагодарите релизера, оцените раздачу и оставьте свои комментарий, если Вы скачали Уховёртка через торрент бесплатно!!
    Комментировать посты могут только пользователи прошедшие не сложную регистрацию
    Показать сообщения:    


    Уховёртка через торрент
    Скачать бесплатно Уховёртка
    Уховёртка скачать торрент
    Уховёртка смотреть онлайн
    Cкачать фильм Уховёртка бесплатно
    Уховёртка скачать торрент в хорошем качестве
    Уховёртка смотреть онлайн бесплатно в хорошем качестве
    Вы не можете начинать темы
    Вы не можете отвечать на сообщения
    Вы не можете редактировать свои сообщения
    Вы не можете удалять свои сообщения
    Вы не можете голосовать в опросах
    Вы не можете прикреплять файлы к сообщениям
    Вы можете скачивать файлы
    Уховёртка / Earwig [2021, Драма, WEB-DL 1080p] Дубляж [Zone Vision / Кинопоиск HD] смотреть онлайн, скачать торрент picoco.icu