Доктор Стрэндж

Лицензия

Добыча

Дубляж

Уэнсдэй

1 сезон

Тор

Дубляж

В эфире

Дубляж

Там, где раки поют

MVO

Властелин колец

1 сезон

Deluxe

pack

Рекомендуем

30

Пиратка

ВАЖНО

ВАЖНО

Ghostwire

Пиратка

jed

RePack

nioh2

RePack

RDR2

RePack

NEED FOR SPEED™ PAYBACK

RePack

скачать торрент

Кинопоиск HD

Острые козырьки 6 сезон

6 сезон

FAR CRY 6

RePack

скачать торрент

Лицензия

скачать торрент

MVO

1

1 сезон

скачать торрент

1 сезон

скачать торрент

Лицензия

  

Одни дома / Holiday Monday (Натан Шепка) [2021, Боевик, WEB-DL 1080p] MVO (rus, ukr) [OKKO]

Одни дома через торрент pb.wtf

Раздают: 3 [ 0 KB/s ]
Размер: 5.27 GB | Добавлен: 3 мес. 6 д. назад | Торрент скачан:65 раз
Смотреть онлайн | Скачать   

29-08-2022 03:59 Одни дома Скачать торрент  

Одни дома
Holiday Monday

Год выпуска: 2021
Страна: Великобритания
Студия: Iron Key Productions, Shepka Productions
Жанр: Боевик
Продолжительность: 01:22:00
Перевод: Профессиональный (многоголосый) | OKKO
Субтитры: отсутствуют

Режиссер: Натан Шепка

rating

В ролях: Колин МакДугалл, Мэтт Саймондс, Джей Грэм, Паули Маккласки, Кайла Колдуэлл, Перри Костелло, Джон Лав

Описание: Двое мужчин наняты для защиты человека, сбегающего от наркосиндиката. Первая встреча превращается в хаос, и с мертвым телом, портфелем украденных денег и убийцей на хвосте Нику и Дереку придется делать больше, чем просто защищать - им придется убивать.

Качество: WEB-DL 1080p
Формат: MKV

Видео: MPEG-4 AVC, 6651 Kb/s, 1908x848 at 23.976 fps
Аудио #1: Russian: 48 kHz, AC3 Dolby Digital, 3/2 (L, C, R, l, r) + LFE ch, ~384 Kbps | MVO | ОККО
Аудио #2: Ukrainian: 48 kHz, AC3 Dolby Digital, 3/2 (L, C, R, l, r) + LFE ch, ~384 Kbps | MVO | ОККО
Аудио #3: English: 48 kHz, Advanced Audio Codec, 2/0 (L, R) ch, ~155 Kbps | Original
скриншот  скриншот  скриншот  скриншот  

Complete name: Prazdnichnyiy.ponedelnik.2021.WEB-DL.1080p.ELEKTRI4KA.UNIONGANG.mkv
Format: Matroska
Format version: Version 4
File size: 5.27 GiB
Duration: 1 h 39 min
Overall bit rate: 7 577 kb/s
Movie name: Prazdnichnyiy.ponedelnik.2021.WEB-DL.1080p.ELEKTRI4KA.UNIONGANG.
Encoded date: UTC 2022-08-27 22:16:15
Writing application: mkvmerge v8.3.0 ('Over the Horizon') 32bit
Writing library: libebml v1.3.1 + libmatroska v1.4.2

Video
ID: 1
Format: AVC
Format/Info: Advanced Video Codec
Format profile: [email protected]
Format settings: CABAC / 5 Ref Frames
Format settings, CABAC: Yes
Format settings, Reference frames: 5 frames
Codec ID: V_MPEG4/ISO/AVC
Duration: 1 h 39 min
Bit rate: 6 651 kb/s
Width: 1 908 pixels
Height: 848 pixels
Display aspect ratio: 2.25:1
Frame rate mode: Constant
Frame rate: 23.976 (24000/1001) FPS
Color space: YUV
Chroma subsampling: 4:2:0
Bit depth: 8 bits
Scan type: Progressive
Bits/(Pixel*Frame): 0.171
Stream size: 4.63 GiB (88%)
Default: Yes
Forced: No
Color range: Limited
Color primaries: BT.709
Transfer characteristics: BT.709
Matrix coefficients: BT.709

Audio #1
ID: 2
Format: AC-3
Format/Info: Audio Coding 3
Commercial name: Dolby Digital
Codec ID: A_AC3
Duration: 1 h 39 min
Bit rate mode: Constant
Bit rate: 384 kb/s
Channel(s): 6 channels
Channel layout: L R C LFE Ls Rs
Sampling rate: 48.0 kHz
Frame rate: 31.250 FPS (1536 SPF)
Compression mode: Lossy
Stream size: 273 MiB (5%)
Title: MVO
Language: Russian
Service kind: Complete Main
Default: Yes
Forced: Yes

Audio #2
ID: 3
Format: AC-3
Format/Info: Audio Coding 3
Commercial name: Dolby Digital
Codec ID: A_AC3
Duration: 1 h 39 min
Bit rate mode: Constant
Bit rate: 384 kb/s
Channel(s): 6 channels
Channel layout: L R C LFE Ls Rs
Sampling rate: 48.0 kHz
Frame rate: 31.250 FPS (1536 SPF)
Compression mode: Lossy
Stream size: 273 MiB (5%)
Title: MVO
Language: Ukrainian
Service kind: Complete Main
Default: No
Forced: No

Audio #3
ID: 4
Format: AAC LC
Format/Info: Advanced Audio Codec Low Complexity
Codec ID: A_AAC-2
Duration: 1 h 39 min
Bit rate: 155 kb/s
Channel(s): 2 channels
Channel layout: L R
Sampling rate: 48.0 kHz
Frame rate: 46.875 FPS (1024 SPF)
Compression mode: Lossy
Stream size: 110 MiB (2%)
Title: Original
Language: English
Default: No
Forced: No




Скачать Одни дома через торрент https://i120.fastpic.org/big/2022/0828/95/b70095dceb1cd32a1ffcec07a82e6195.jpg Скачать, смотреть онлайн Одни дома бесплантно в хорошем качестве Описание: Двое мужчин наняты для защиты человека, сбегающего от наркосиндиката. Первая встреча превращается в хаос, и с мертвым телом, ... 10 10 5
Торрент: Зарегистрирован [2022-08-29 03:59] · скачан: 65 раз
Статус: √ проверено
Размер: 5.27 GB
Как cкачать? Как скачать Одни дома через торрент | UTorrent

% Раздел Тема Автор DL S | L
Фильмы 2021 [DVDrip, WEB-DLRip, HDrip] (DUB, MVO) [ 1.46 GB ] Одни дома / Holiday Monday | OKKO | DLRip bober100 Скачать
1 | 0
Фильмы 2021 [DVDrip, WEB-DLRip, HDrip] (DUB, MVO) [ 1.95 GB ] Одни дома / Holiday Monday | OKKO | DLRip-AVC bober100 Скачать
1 | 0

28-11-2019 20:33  


Отключить вcю реклaмy на сайте, в т.ч. и в плеере онлайн просмотра!

    Дорогой пользователь! Огромная просьба, поблагодарите релизера, оцените раздачу и оставьте свои комментарий, если Вы скачали Одни дома через торрент бесплатно!!
    Комментировать посты могут только пользователи прошедшие не сложную регистрацию
    Показать сообщения:    


    Одни дома через торрент
    Скачать бесплатно Одни дома
    Одни дома скачать торрент
    Одни дома смотреть онлайн
    Cкачать фильм Одни дома бесплатно
    Одни дома скачать торрент в хорошем качестве
    Одни дома смотреть онлайн бесплатно в хорошем качестве
    Вы не можете начинать темы
    Вы не можете отвечать на сообщения
    Вы не можете редактировать свои сообщения
    Вы не можете удалять свои сообщения
    Вы не можете голосовать в опросах
    Вы не можете прикреплять файлы к сообщениям
    Вы можете скачивать файлы
    Одни дома / Holiday Monday [2021, Боевик, WEB-DL 1080p] MVO [OKKO] смотреть онлайн, скачать торрент picoco.icu