Достать ножи: Стеклянная луковица

MVO

Добыча

Дубляж

Уэнсдэй

1 сезон

Тор

Дубляж

13 клиническая

1 сезон

Жестокая ночь

MVO

Одни из нас

1 сезон

Deluxe

pack

Рекомендуем

30

Пиратка

ВАЖНО

ВАЖНО

Ghostwire

Пиратка

jed

RePack

nioh2

RePack

RDR2

RePack

NEED FOR SPEED™ PAYBACK

RePack

скачать торрент

Кинопоиск HD

Острые козырьки 6 сезон

6 сезон

FAR CRY 6

RePack

скачать торрент

Лицензия

скачать торрент

MVO

1

1 сезон

скачать торрент

1 сезон

скачать торрент

Лицензия

  

Харли Квинн / Harley Quinn / Сезон: 3 / Серии: 1-10 из 10 (Сесилия Аранович, Мэтт Гарофало, Фрэнк Марино) [2022, Мультсериал, фантастика, боевик, WEB-DL 1080p] Дубляж [Red Head Sound]

Харли Квинн через торрент pb.wtf

Размер: 13.6 GB | Добавлен: 4 мес. 19 д. назад | Торрент скачан:48 раз
Смотреть онлайн | Скачать | Поддержите нас   

29-08-2022 06:28 Харли Квинн Скачать торрент  

Харли Квинн | Harley Quinn
Год выпуска: 2022
Страна: США
Выпущено: DC Entertainment, Ehsugadee, Warner Bros. Animation, Yes, Norman Productions
Жанр: Мультсериал, фантастика, фэнтези, боевик, комедия, криминал, детектив
Продолжительность: ~ 00:22:00
Перевод: Дублированный | Red Head Sound
Субтитры: отсутствуют

Режиссер: Сесилия Аранович, Мэтт Гарофало, Фрэнк Марино

rating

В ролях: Кейли Куоко, Лэйк Белл, Алан Тьюдик, Дидрих Бадер, Джим Рэш, Рон Фанчес, Кристофер Мелони, Тони Хейл, Дж.Б. Смув, Джейсон Александер

Описание: Харли Квинн разорвала отношения с Джокером и теперь пытается самостоятельно стать королевой преступного мира Готэма.

Качество: WEB-DL 1080p
Формат: | X264 | MKV |

Видео: MPEG-4 AVC, 1920x1080 (16:9), 23,974 fps, ~8250 Кбит/сек
Аудио: AC-3, 48.0 kHz, 2 ch, 256 kb/s [Дубляж - The Kitchen Russia]

Общее
Уникальный идентификатор : 205340577602403253831499208235808272092 (0x9A7B281ED10C70389471085881092EDC)
Полное имя : D:Харли Квинн_3_сезон_Red_Head_Sound_[scarfilm.org]\Harley.Quinn.s03e01.1080p_Red_Head_Sound_[scarfilm.org].mkv
Формат : Matroska
Версия формата : Version 4
Размер файла : 1,36 Гбайт
Продолжительность : 22 м. 50 с.
Режим общего битрейта : Переменный
Общий поток : 8 504 Кбит/сек
Дата кодирования : UTC 2022-08-03 15:40:39
Программа кодирования : mkvmerge v6.1.0 ('Old Devil') built on Mar 4 2013 09:10:42
Библиотека кодирования : libebml v1.3.0 + libmatroska v1.4.0

Видео
Идентификатор : 1
Формат : AVC
Формат/Информация : Advanced Video Codec
Профиль формата : [email protected]
Настройки формата : CABAC / 4 Ref Frames
Параметр CABAC формата : Да
Параметр RefFrames формата : 4 кадра
Идентификатор кодека : V_MPEG4/ISO/AVC
Продолжительность : 22 м. 50 с.
Вид битрейта : Переменный
Битрейт : 8 250 Кбит/сек
Максимальный битрейт : 12,4 Мбит/сек
Ширина : 1 920 пикселей
Высота : 1 080 пикселей
Соотношение сторон : 16:9
Режим частоты кадров : Постоянный
Частота кадров : 23,976 (24000/1001) кадра/сек
Цветовое пространство : YUV
Субдискретизация насыщенности : 4:2:0
Битовая глубина : 8 бит
Тип развёртки : Прогрессивная
Бит/(Пиксели*Кадры) : 0.166
Размер потока : 1,29 Гбайт (95%)
Библиотека кодирования : x264 core 157 r2965 861cec4
Настройки программы : cabac=1 / ref=4 / deblock=1:0:0 / analyse=0x3:0x113 / me=hex / subme=7 / psy=1 / psy_rd=1.00:0.00 / mixed_ref=1 / me_range=16 / chroma_me=1 / trellis=1 / 8x8dct=1 / cqm=0 / deadzone=21,11 / fast_pskip=1 / chroma_qp_offset=-2 / threads=34 / lookahead_threads=5 / sliced_threads=0 / nr=0 / decimate=1 / interlaced=0 / bluray_compat=0 / constrained_intra=0 / bframes=3 / b_pyramid=2 / b_adapt=1 / b_bias=0 / direct=1 / weightb=1 / open_gop=0 / weightp=2 / keyint=96 / keyint_min=96 / scenecut=40 / intra_refresh=0 / rc_lookahead=40 / rc=2pass / mbtree=1 / bitrate=8250 / ratetol=1.0 / qcomp=0.60 / qpmin=0 / qpmax=69 / qpstep=4 / cplxblur=20.0 / qblur=0.5 / vbv_maxrate=12375 / vbv_bufsize=6187 / nal_hrd=vbr / filler=0 / ip_ratio=1.40 / aq=1:1.00
Default : Да
Forced : Нет
Цветовой диапазон : Limited
Основные цвета : BT.709
Характеристики трансфера : BT.709
Коэффициенты матрицы : BT.709

Аудио
Идентификатор : 2
Формат : AC-3
Формат/Информация : Audio Coding 3
Коммерческое название : Dolby Digital
Идентификатор кодека : A_AC3
Продолжительность : 22 м. 50 с.
Вид битрейта : Постоянный
Битрейт : 256 Кбит/сек
Каналы : 2 канала
Channel layout : L R
Частота : 48,0 КГц
Частота кадров : 31,250 кадров/сек (1536 SPF)
Метод сжатия : С потерями
Размер потока : 41,8 Мбайт (3%)
Заголовок : Дубляж - Red Head Sound
Язык : Russian
Service kind : Complete Main
Default : Да
Forced : Нет

Когда раздача ведётся путём добавления новых серий, при каждом добавлении создётся новый торрент. Чтобы начать докачку новой серии, пользователям необходимо сделать следующее:
(1) остановить скачивание,
(2) удалить старый торрент у себя из клиента (старые серии удалять не надо),
(3) скачать новый торрент и запустить его у себя в клиенте вместо старого, при этом указать клиенту путь в старую папку, куда и должно происходить скачивание новых серий.
Ваш клиент при этом должен произвести хеширование (проверку) старой папки (если не производит сам - помогите ему сделать это), и будет докачивать только те серии, которых у вас ещё нет. Старые серии при этом не удаляются, а продолжают раздаваться!
Eсли вы уже удалили старые серии, то предотвратить повторную закачку старых серий можно, отжав галочку в соответсвующих местах при запуске нового торрента. По возможности, желательно не удалять старые серии как можно дольше, чтобы релизёр не столько продолжал раздавать старые серии, а смог сконцентрироваться на новых.




Скачать Харли Квинн через торрент https://i112.fastpic.ru/big/2020/0520/c5/91c7d1c4a9faa1ae591efa115644fcc5.png Скачать, смотреть онлайн Харли Квинн бесплантно в хорошем качестве Описание: Харли Квинн разорвала отношения с Джокером и теперь пытается самостоятельно стать королевой преступного мира ... 6.2 10 5
Торрент: Зарегистрирован [2022-09-17 20:54] · скачан: 48 раз
Статус: √ проверено
Размер: 13.6 GB
Как cкачать? Как скачать Харли Квинн через торрент | UTorrent

% Раздел Тема Автор DL S | L
Мультсериалы [ 4.99 GB ] Харли Квинн / Harley Quinn / Сезон: 2 / Серии: 1-13 из 13 | DUB | DLRip bober100 Скачать
1 | 0
Мультсериалы [ 23.65 GB ] Харли Квинн / Harley Quinn / Сезон: 2 / Серии: 1-13 из 13 | DUB | 2160p, (SDR bober100 Скачать
1 | 0
Мультсериалы [ 12.5 GB ] Харли Квинн / Harley Quinn / Сезон: 2 / Серии: 1-13 из 13 | DUB | 1080p bober100 Скачать
1 | 0
Мультсериалы [ 3.95 GB ] Харли Квинн / Harley Quinn / Сезон: 1 / Серии: 1-13 из 13 | DUB | DLRip killermax2013 Скачать
1 | 0
Мультсериалы [ 23.67 GB ] Харли Квинн / Harley Quinn / Сезон: 1 / Серии: 1-13 из 13 | DUB | 2160p killermax2013 Скачать
1 | 0
Мультсериалы [ 5.38 GB ] Харли Квинн / Harley Quinn / Сезон: 1 / Серии: 1-13 из 13 | DUB | DLRip bober100 Скачать
1 | 0
Мультсериалы [ 23.61 GB ] Харли Квинн / Harley Quinn / Сезон: 1 / Серии: 1-13 из 13 | TVShows | 2160p bober100 Скачать
1 | 0

28-11-2019 20:33  


Отключить вcю реклaмy на сайте, в т.ч. и в плеере онлайн просмотра!

    Дорогой пользователь! Огромная просьба, поблагодарите релизера, оцените раздачу и оставьте свои комментарий, если Вы скачали Харли Квинн через торрент бесплатно!!
    Комментировать посты могут только пользователи прошедшие не сложную регистрацию
    Показать сообщения:    


    Харли Квинн через торрент
    Скачать бесплатно Харли Квинн
    Харли Квинн скачать торрент
    Харли Квинн смотреть онлайн
    Cкачать фильм Харли Квинн бесплатно
    Харли Квинн скачать торрент в хорошем качестве
    Харли Квинн смотреть онлайн бесплатно в хорошем качестве
    Вы не можете начинать темы
    Вы не можете отвечать на сообщения
    Вы не можете редактировать свои сообщения
    Вы не можете удалять свои сообщения
    Вы не можете голосовать в опросах
    Вы не можете прикреплять файлы к сообщениям
    Вы можете скачивать файлы
    Харли Квинн / Harley Quinn / Сезон: 3 / Серии: 1-10 из 10 [2022, Мультсериал, фантастика, боевик, WEB-DL 1080p] Дубляж [Red Head Sound] смотреть онлайн, скачать торрент picoco.icu