Достать ножи: Стеклянная луковица

MVO

Добыча

Дубляж

Уэнсдэй

1 сезон

Тор

Дубляж

13 клиническая

1 сезон

Жестокая ночь

MVO

Одни из нас

1 сезон

Deluxe

pack

Рекомендуем

30

Пиратка

ВАЖНО

ВАЖНО

Ghostwire

Пиратка

jed

RePack

nioh2

RePack

RDR2

RePack

NEED FOR SPEED™ PAYBACK

RePack

скачать торрент

Кинопоиск HD

Острые козырьки 6 сезон

6 сезон

FAR CRY 6

RePack

скачать торрент

Лицензия

скачать торрент

MVO

1

1 сезон

скачать торрент

1 сезон

скачать торрент

Лицензия

  

Добыча / Prey (Дэн Трахтенберг) [2022, Ужасы, фантастика, боевик, WEB-DLRip-AVC] Дубляж [Red Head Sound]

Добыча через торрент pb.wtf

Раздают: 6 [ 48 KB/s ]
Размер: 1.76 GB | Добавлен: 5 мес. 8 д. назад | Торрент скачан:574 раза
Смотреть онлайн | Скачать | Поддержите нас   

29-08-2022 17:12 Добыча Скачать торрент  

Добыча
Prey

Год выпуска: 2022
Страна: США
Студия: 20th Century Studios, Davis Entertainment
Жанр: Ужасы, фантастика, боевик
Продолжительность: 01:39:29
Перевод: Дублированный | Red Head Sound
Субтитры: Русские (FOCS), английские

Режиссер: Дэн Трахтенберг

rating

В ролях: Эмбер Мидфандер, Дэйн Дильегро, Харлан Блейн Китвейхат, Дакота Биверс, Джеронимо Вела, Стефани Матиас, Сторми Кипп, Майк Патерсон, Джулиан Шэмп, Нельсон Картер Лейс

Описание: Женщина-воин Нару пытается защитить свое племя от одного из первых высокоразвитых Хищников, высадившихся на Земле.

Качество: WEB-DLRip-AVC
Формат: MKV

Видео: 1024x428 at 24.000 fps, [email protected], ~1640 kbps
Аудио 1: AC3, 6 ch, ~448 kbps - | Русский | | Red Head Sound
Аудио 2: AC3, 6 ch, ~448 kbps - | Английский | | Original
скриншот  скриншот  скриншот  скриншот  

x264 [info]: frame I:1085 Avg QP:17.23 size: 51073
x264 [info]: frame P:34900 Avg QP:18.34 size: 17192
x264 [info]: frame B:107293 Avg QP:20.28 size: 5296

General
Unique ID : 140673516239739691884384445730694270768 (0x69D4BBD5C8B82A26DFA8EDD837A28F30)
Complete name : D:Добыча Prey (2022) WEBPrey.2022.Дубляж.WEB-DLRip.x264.seleZen.mkv
Format : Matroska
Format version : Version 4
File size : 1.76 GiB
Duration : 1 h 39 min
Overall bit rate : 2 537 kb/s
Movie name : Prey.2022.Дубляж.WEB-DLRip.x264.seleZen
Encoded date : UTC 2022-08-29 16:45:39
Writing application : mkvmerge v70.0.0 ('Caught A Lite Sneeze') 64-bit
Writing library : libebml v1.4.2 + libmatroska v1.6.4
Cover : Yes
Attachments : cover.jpg / small_cover.jpg

Video
ID : 1
Format : AVC
Format/Info : Advanced Video Codec
Format profile : [email protected]
Format settings : CABAC / 12 Ref Frames
Format settings, CABAC : Yes
Format settings, Reference : 12 frames
Codec ID : V_MPEG4/ISO/AVC
Duration : 1 h 39 min
Bit rate : 1 640 kb/s
Width : 1 024 pixels
Height : 428 pixels
Display aspect ratio : 2.40:1
Frame rate mode : Constant
Frame rate : 24.000 FPS
Color space : YUV
Chroma subsampling : 4:2:0
Bit depth : 8 bits
Scan type : Progressive
Bits/(Pixel*Frame) : 0.156
Stream size : 1.14 GiB (65%)
Title : -=DoMiNo=-
Writing library : x264 core 164 by -=DoMiNo=-
Encoding settings : cabac=1 / ref=12 / deblock=1:-3:-3 / analyse=0x3:0x133 / me=umh / subme=10 / psy=1 / psy_rd=1.00:0.20 / mixed_ref=1 / me_range=32 / chroma_me=1 / trellis=2 / 8x8dct=1 / cqm=0 / deadzone=21,11 / fast_pskip=0 / chroma_qp_offset=-3 / threads=17 / lookahead_threads=3 / sliced_threads=0 / nr=0 / decimate=0 / interlaced=0 / bluray_compat=0 / constrained_intra=0 / bframes=10 / b_pyramid=2 / b_adapt=2 / b_bias=0 / direct=1 / weightb=1 / open_gop=0 / weightp=2 / keyint=250 / keyint_min=24 / scenecut=40 / intra_refresh=0 / rc_lookahead=60 / rc=crf / mbtree=0 / crf=20.0 / qcomp=0.65 / qpmin=0 / qpmax=69 / qpstep=4 / vbv_maxrate=50000 / vbv_bufsize=62500 / crf_max=0.0 / nal_hrd=none / filler=0 / ip_ratio=1.30 / pb_ratio=1.25 / aq=3:1.00
Language : English
Default : Yes
Forced : No

Audio #1
ID : 2
Format : AC-3
Format/Info : Audio Coding 3
Commercial name : Dolby Digital
Codec ID : A_AC3
Duration : 1 h 39 min
Bit rate mode : Constant
Bit rate : 448 kb/s
Channel(s) : 6 channels
Channel layout : L R C LFE Ls Rs
Sampling rate : 48.0 kHz
Frame rate : 31.250 FPS (1536 SPF)
Compression mode : Lossy
Stream size : 319 MiB (18%)
Title : Дубляж [Red Head Sound]
Language : Russian
Service kind : Complete Main
Default : Yes
Forced : Yes

Audio #2
ID : 3
Format : AC-3
Format/Info : Audio Coding 3
Commercial name : Dolby Digital
Codec ID : A_AC3
Duration : 1 h 39 min
Bit rate mode : Constant
Bit rate : 448 kb/s
Channel(s) : 6 channels
Channel layout : L R C LFE Ls Rs
Sampling rate : 48.0 kHz
Frame rate : 31.250 FPS (1536 SPF)
Compression mode : Lossy
Stream size : 319 MiB (18%)
Title : Original
Language : English
Service kind : Complete Main
Default : No
Forced : No

Text #1
ID : 4
Format : UTF-8
Codec ID : S_TEXT/UTF8
Codec ID/Info : UTF-8 Plain Text
Duration : 1 h 28 min
Bit rate : 23 b/s
Count of elements : 347
Stream size : 15.2 KiB (0%)
Title : FULL [FOCS]
Language : Russian
Default : No
Forced : No

Text #2
ID : 5
Format : UTF-8
Codec ID : S_TEXT/UTF8
Codec ID/Info : UTF-8 Plain Text
Duration : 1 h 29 min
Bit rate : 27 b/s
Count of elements : 849
Stream size : 18.4 KiB (0%)
Title : SDH
Language : English
Default : No
Forced : No




Скачать Добыча через торрент https://i120.fastpic.org/big/2022/0829/cc/b3cda895949a59984d0a2a4960a00bcc.png Скачать, смотреть онлайн Добыча бесплантно в хорошем качестве Описание: Женщина-воин Нару пытается защитить свое племя от одного из первых высокоразвитых Хищников, высадившихся на ... 9.9 10 17
Info! Золотая раздача, скачанное не засчитывается.
Торрент: Зарегистрирован [2022-08-29 17:12] · скачан: 574 раз
Статус: √ проверено
Размер: 1.76 GB
Как cкачать? Как скачать Добыча через торрент | UTorrent

% Раздел Тема Автор DL S | L
Ultra HD (UHD: 2K, 4K, 8K) [ 12.48 GB ] Добыча / Prey | Jaskier | 2160p bober100 Скачать
15 | 0
Фильмы 2022-2023 [DVDrip, WEB-DLRip, HDrip] (DUB, MVO) [ 1.91 GB ] Добыча / Prey | NewComers | DLRip-AVC Lithuania Скачать
8 | 0
Фильмы (WEB-DL 720p, 1080p) [ 5.02 GB ] Добыча / Prey | DUB | 1080p bober100 Скачать
4 | 0
Фильмы (WEB-DL 720p, 1080p) [ 5.68 GB ] Добыча / Prey | Jaskier | 1080p bober100 Скачать
11 | 0
Фильмы (HD 720p, 1080p) (48-60 fps) [ 3.44 GB ] Добыча / Prey | | DLRip 720p / 60 FPS MVO slaventi-69 Скачать
6 | 1
Фильмы 2022-2023 [DVDrip, WEB-DLRip, HDrip] (DUB, MVO) [ 1.46 GB ] Добыча / Prey | NewComers | DLRip MVO jump88 Скачать
4 | 0
Фильмы 2022-2023 [DVDrip, WEB-DLRip, HDrip] (DUB, MVO) [ 1.46 GB ] Добыча / Prey | NewComers | WEBRip-AVC bober100 Скачать
3 | 1

28-11-2019 20:33  


Отключить вcю реклaмy на сайте, в т.ч. и в плеере онлайн просмотра!

31-08-2022 17:43 Добыча Скачать торрент  

Бред какой-то! Совсем убили франшизу!



04-09-2022 05:57 Добыча Скачать торрент  

а мне зашло по крайней мере это лучше чем последнее до этого тут мало денег но под конец бодрый экшон,девченка живая интересная нет подруги лисбиянки и о ужас она симпатичная



14-11-2022 08:28 Добыча Скачать торрент  

LostControl писал(а):

а мне зашло по крайней мере это лучше чем последнее до этого тут мало денег но под конец бодрый экшон,девченка живая интересная нет подруги лисбиянки и о ужас она симпатичная

ЭТО кал а ты говноед



24-11-2022 11:33 Добыча Скачать торрент  

Нормальный фильм, получше кучи того дерьма что сейчас снтмают



    Дорогой пользователь! Огромная просьба, поблагодарите релизера, оцените раздачу и оставьте свои комментарий, если Вы скачали Добыча через торрент бесплатно!!
    Комментировать посты могут только пользователи прошедшие не сложную регистрацию
    Показать сообщения:    


    Добыча через торрент
    Скачать бесплатно Добыча
    Добыча скачать торрент
    Добыча смотреть онлайн
    Cкачать фильм Добыча бесплатно
    Добыча скачать торрент в хорошем качестве
    Добыча смотреть онлайн бесплатно в хорошем качестве
    Вы можете начинать темы
    Вы можете отвечать на сообщения
    Вы не можете редактировать свои сообщения
    Вы не можете удалять свои сообщения
    Вы не можете голосовать в опросах
    Вы не можете прикреплять файлы к сообщениям
    Вы можете скачивать файлы
    Добыча / Prey [2022, Ужасы, фантастика, боевик, WEB-DLRip-AVC] Дубляж [Red Head Sound] смотреть онлайн, скачать торрент picoco.icu