Доктор Стрэндж

Лицензия

Добыча

Дубляж

Дом дракона

1 сезон

Тор

Дубляж

В эфире

Дубляж

Там, где раки поют

MVO

Властелин колец

1 сезон

Deluxe

pack

Рекомендуем

30

Пиратка

ВАЖНО

ВАЖНО

Ghostwire

Пиратка

jed

RePack

nioh2

RePack

RDR2

RePack

NEED FOR SPEED™ PAYBACK

RePack

скачать торрент

Кинопоиск HD

Острые козырьки 6 сезон

6 сезон

FAR CRY 6

RePack

скачать торрент

Лицензия

скачать торрент

MVO

1

1 сезон

скачать торрент

1 сезон

скачать торрент

Лицензия

  

Пациент / The Patient / Сезон: 1 / Серии: 1-9 из 10 (Крис Лонг, Кевин Брэй, Гвинет Хердер-Пэйтон) [2022, Триллер, драма, детектив, WEB-DL 1080p] [MVO] (Jaskier)

Пациент через торрент pb.wtf

Раздают: 1 [ 0 KB/s ] Качают: 1 [ 0 KB/s ]
Размер: 7.61 GB | Добавлен: 1 мес. 12 д. назад | Торрент скачан:17 раз
Смотреть онлайн | Скачать   

01-09-2022 11:24 Пациент Скачать торрент  

Пациент / The Patient
Год выхода: 2022
Жанр: Триллер, драма, детектив
Страна: США
Продолжительность: 1x ~00:25:00
Перевод: Профессиональный (многоголосый, закадровый) - Jaskier
Субтитры: английские

Режиссер: Крис Лонг, Кевин Брэй, Гвинет Хердер-Пэйтон

В ролях: Стив Карелл, Донал Глисон, Линда Эмонд, Эндрю Лидз, Лаура Ниеми, Эми Гендельман, Дэвид Алан Грир, Алекс Рич, Рената Фридман, Джэйк Бродер

Описание: Психотерапевт Алан Штраус оказывается в плену у своего пациента Сэма Фортнера, серийного убийцы. У Сэма есть необычная просьба: ему надо, чтобы Алан помог ему обуздать порывы к убийствам. Теперь психотерапевту надо разобраться в сознании Фортнера и одновременно не дать своим собственным проблемам помешать ему разгадать разум убийцы.

rating

Качество: WEB-DL 1080p
Формат: MKV
Видео: AVC, 1920x1080 at 23.976 fps, ~3 300 kbps avg
Аудио #1 Rus: 48 kHz, AC3, 6 ch, 448 kbps | Jaskier
Аудио #2 Eng: 48 kHz, E-AC3, 6 ch, 256 kbps | оригинал
скриншот  скриншот  скриншот  
General
Unique ID : 243452247271792052756686747290368340883 (0xB7273282931C1C5C889AAE40A0ADF393)
Complete name : G:\The Patient.S01.WEB-DL.1080p\The Patient.S01E01.WEB-DL1080p.[Jaskier].xz.mkv
Format : Matroska
Format version : Version 4
File size : 594 MiB
Duration : 21 min 10 s
Overall bit rate : 3 925 kb/s
Movie name : The Patient.S01E01.WEB-DL1080p.[Jaskier].xz
Encoded date : UTC 2022-09-01 11:06:20
Writing application : mkvmerge v6.1.0 ('Old Devil') built on Mar 2 2013 14:32:37
Writing library : libebml v1.3.0 + libmatroska v1.4.0

Video
ID : 1
Format : AVC
Format/Info : Advanced Video Codec
Format profile : [email protected]
Format settings : CABAC / 4 Ref Frames
Format settings, CABAC : Yes
Format settings, Reference : 4 frames
Codec ID : V_MPEG4/ISO/AVC
Duration : 21 min 10 s
Bit rate : 3 143 kb/s
Width : 1 920 pixels
Height : 1 080 pixels
Display aspect ratio : 16:9
Frame rate mode : Constant
Frame rate : 23.976 (24000/1001) FPS
Color space : YUV
Chroma subsampling : 4:2:0
Bit depth : 8 bits
Scan type : Progressive
Bits/(Pixel*Frame) : 0.063
Stream size : 476 MiB (80%)
Title : The Patient.S01E01.WEB-DL1080p.[Jaskier].xz
Default : Yes
Forced : No
Statistics Tags Issue : mkvmerge v70.0.0 ('Caught A Lite Sneeze') 64-bit / mkvmerge v6.1.0 ('Old Devil') built on Mar 2 2013 14:32:37 2022-09-01 11:06:20
FromStats_BitRate : 3218962
FromStats_Duration : 00:21:10.186000000
FromStats_FrameCount : 30454
FromStats_StreamSize : 511085116
Duration_Source : General_Duration

Audio #1
ID : 2
Format : AC-3
Format/Info : Audio Coding 3
Commercial name : Dolby Digital
Codec ID : A_AC3
Duration : 21 min 10 s
Bit rate mode : Constant
Bit rate : 448 kb/s
Channel(s) : 6 channels
Channel layout : L R C LFE Ls Rs
Sampling rate : 48.0 kHz
Frame rate : 31.250 FPS (1536 SPF)
Compression mode : Lossy
Stream size : 67.8 MiB (11%)
Title : Jaskier
Language : Russian
Service kind : Complete Main
Default : No
Forced : No
Statistics Tags Issue : mkvmerge v64.0.0 ('Willows') 64-bit 2022-09-01 07:50:49 / mkvmerge v6.1.0 ('Old Devil') built on Mar 2 2013 14:32:37 2022-09-01 11:06:20
FromStats_BitRate : 448000
FromStats_Duration : 00:21:10.368003744
FromStats_FrameCount : 39699
FromStats_StreamSize : 71140608
Duration_Source : General_Duration

Audio #2
ID : 3
Format : E-AC-3
Format/Info : Enhanced AC-3
Commercial name : Dolby Digital Plus
Codec ID : A_EAC3
Duration : 21 min 10 s
Bit rate mode : Constant
Bit rate : 256 kb/s
Channel(s) : 6 channels
Channel layout : L R C LFE Ls Rs
Sampling rate : 48.0 kHz
Frame rate : 31.250 FPS (1536 SPF)
Compression mode : Lossy
Stream size : 38.8 MiB (7%)
Language : English
Service kind : Complete Main
Default : No
Forced : No
Statistics Tags Issue : mkvmerge v70.0.0 ('Caught A Lite Sneeze') 64-bit / mkvmerge v6.1.0 ('Old Devil') built on Mar 2 2013 14:32:37 2022-09-01 11:06:20
FromStats_BitRate : 256000
FromStats_Duration : 00:21:10.304000000
FromStats_FrameCount : 39697
FromStats_StreamSize : 40649728
Duration_Source : General_Duration

Text #1
ID : 4
Format : UTF-8
Codec ID : S_TEXT/UTF8
Codec ID/Info : UTF-8 Plain Text
Language : English
Default : No
Forced : No
Statistics Tags Issue : mkvmerge v70.0.0 ('Caught A Lite Sneeze') 64-bit / mkvmerge v6.1.0 ('Old Devil') built on Mar 2 2013 14:32:37 2022-09-01 11:06:20
FromStats_BitRate : 48
FromStats_Duration : 00:19:57.293000000
FromStats_FrameCount : 245
FromStats_StreamSize : 7191

Text #2
ID : 5
Format : UTF-8
Codec ID : S_TEXT/UTF8
Codec ID/Info : UTF-8 Plain Text
Title : SDH
Language : English
Default : No
Forced : No
Statistics Tags Issue : mkvmerge v70.0.0 ('Caught A Lite Sneeze') 64-bit / mkvmerge v6.1.0 ('Old Devil') built on Mar 2 2013 14:32:37 2022-09-01 11:06:20
FromStats_BitRate : 51
FromStats_Duration : 00:20:51.000000000
FromStats_FrameCount : 297
FromStats_StreamSize : 7989

Menu
00:00:00.000 : en:Chapter 1
00:03:26.014 : en:Chapter 2
00:11:56.020 : en:Chapter 3
00:19:27.021 : en:Credits
Когда раздача ведётся путём добавления новых серий, при каждом добавлении создётся новый торрент. Чтобы начать докачку новой серии, пользователям необходимо сделать следующее:

(1) остановить скачивание,

(2) удалить старый торрент у себя из клиента (старые серии удалять не надо),

(3) скачать новый торрент и запустить его у себя в клиенте вместо старого, при этом указать клиенту путь в старую папку, куда и должно происходить скачивание новых серий.

Ваш клиент при этом должен произвести хеширование (проверку) старой папки (если не производит сам - помогите ему сделать это), и будет докачивать только те серии, которых у вас ещё нет. Старые серии при этом не удаляются, а продолжают раздаваться!

Eсли вы уже удалили старые серии, то предотвратить повторную закачку старых серий можно, отжав галочку в соответсвующих местах при запуске нового торрента. По возможности, желательно не удалять старые серии как можно дольше, чтобы релизер не столько продолжал раздавать старые серии, а смог сконцентрироваться на новых.



Скачать Пациент через торрент https://i120.fastpic.org/big/2022/0901/57/02f50a172b8da61e2a35f93b469a1b57.jpeg Скачать, смотреть онлайн Пациент бесплантно в хорошем качестве Описание: Психотерапевт Алан Штраус оказывается в плену у своего пациента Сэма Фортнера, серийного убийцы. У Сэма есть необычная просьба: ... 7.4 10 14
Торрент: Зарегистрирован [2022-10-21 09:58] · скачан: 17 раз
Статус: √ проверено
Размер: 7.61 GB
Как cкачать? Как скачать Пациент через торрент | UTorrent

28-11-2019 20:33  


Отключить вcю реклaмy на сайте, в т.ч. и в плеере онлайн просмотра!

    Дорогой пользователь! Огромная просьба, поблагодарите релизера, оцените раздачу и оставьте свои комментарий, если Вы скачали Пациент через торрент бесплатно!!
    Комментировать посты могут только пользователи прошедшие не сложную регистрацию
    Показать сообщения:    


    Пациент через торрент
    Скачать бесплатно Пациент
    Пациент скачать торрент
    Пациент смотреть онлайн
    Cкачать фильм Пациент бесплатно
    Пациент скачать торрент в хорошем качестве
    Пациент смотреть онлайн бесплатно в хорошем качестве
    Вы не можете начинать темы
    Вы не можете отвечать на сообщения
    Вы не можете редактировать свои сообщения
    Вы не можете удалять свои сообщения
    Вы не можете голосовать в опросах
    Вы не можете прикреплять файлы к сообщениям
    Вы можете скачивать файлы
    Пациент / The Patient / Сезон: 1 / Серии: 1-9 из 10 [2022, Триллер, драма, детектив, WEB-DL 1080p] [MVO] смотреть онлайн, скачать торрент picoco.icu