Доктор Стрэндж

Лицензия

Добыча

Дубляж

Уэнсдэй

1 сезон

Тор

Дубляж

В эфире

Дубляж

Там, где раки поют

MVO

Властелин колец

1 сезон

Deluxe

pack

Рекомендуем

30

Пиратка

ВАЖНО

ВАЖНО

Ghostwire

Пиратка

jed

RePack

nioh2

RePack

RDR2

RePack

NEED FOR SPEED™ PAYBACK

RePack

скачать торрент

Кинопоиск HD

Острые козырьки 6 сезон

6 сезон

FAR CRY 6

RePack

скачать торрент

Лицензия

скачать торрент

MVO

1

1 сезон

скачать торрент

1 сезон

скачать торрент

Лицензия

  

Шпион, которого не было / Двойной агент / Rogue Agent / Chasing Agent Freegard (Адам Паттерсон) [2022, Триллер, WEB-DL 1080p] Дубляж [Pride Production]

Шпион, которого не было через торрент pb.wtf

Раздают: 2 [ 0 KB/s ]
Размер: 2.66 GB | Добавлен: 3 мес. 1 д. назад | Торрент скачан:200 раз
Смотреть онлайн | Скачать   

03-09-2022 04:26 Шпион, которого не было Скачать торрент  

Шпион, которого не было / Двойной агент
Rogue Agent / Chasing Agent Freegard

Год выпуска: 2022
Страна: Великобритания
Студия: Anhinga Media, Great Point Media, Night Train Media
Жанр: Триллер
Продолжительность: 01:55:56
Перевод: Дублированный | Pride Production
Субтитры: Русские (Full), английские

Режиссер: Адам Паттерсон

rating

В ролях: Джемма Артертон, Джеймс Нортон, Сара Голдберг, Шазад Латиф, Фрейя Мавор, Джимми Экинбола, Джулиан Бэррэтт, Эдвина Финдли, Мариса Абела, Майкл Фентон Стивенс

Описание: История афериста Роберта Фригарда, обманывавшего людей, изображая агента МИ-5, и влюбившейся в него женщины, которая вывела его на чистую воду.

Качество: WEB-DL 1080p
Формат: MKV

Видео: MPEG-4 AVC, 1920x1080, 2596 Kbit/s, 24.000 fps
Аудио #01: 48 kHz, AC3, 5.1, 448 Kbps | Дублированный | Pride Production | RUS |
Аудио #02: 48 kHz, E-AC3, 5.1, 640 Kbps | Оригинал | ENG |
скриншот  скриншот  скриншот  скриншот  

General
Unique ID: 118673715888914535755857788968380590703 (0x5947B9EF12B84C82A7711678DEDEEA6F)
Complete name: F:VideoRogue.Agent.2022.NF.WEB-DL.1080p.seleZen.mkv
Format: Matroska
Format version: Version 4
File size: 2.66 GiB
Duration: 1 h 55 min
Overall bit rate mode: Variable
Overall bit rate: 3 286 kb/s
Movie name: Rogue Agent 2022 from seleZen
Encoded date: UTC 2022-09-02 15:05:16
Writing application: mkvmerge v59.0.0 ('Shining Star') 64-bit
Writing library: libebml v1.4.2 + libmatroska v1.6.4

Video
ID: 1
Format: AVC
Format/Info: Advanced Video Codec
Format profile: [email protected]
Format settings: CABAC / 3 Ref Frames
Format settings, CABAC: Yes
Format settings, Reference: 3 frames
Codec ID: V_MPEG4/ISO/AVC
Duration: 1 h 55 min
Bit rate mode: Variable
Bit rate: 2 195 kb/s
Nominal bit rate: 2 596 kb/s
Maximum bit rate: 4 305 kb/s
Width: 1 920 pixels
Height: 1 080 pixels
Display aspect ratio: 16:9
Frame rate mode: Constant
Frame rate: 24.000 FPS
Color space: YUV
Chroma subsampling: 4:2:0
Bit depth: 8 bits
Scan type: Progressive
Bits/(Pixel*Frame): 0.044
Stream size: 1.78 GiB (67%)
Writing library: x264 core 148 r2727 7d026e8
Encoding settings: cabac=1 / ref=3 / deblock=1:0:0 / analyse=0x1:0x111 / me=umh / subme=10 / psy=1 / psy_rd=1.00:0.00 / mixed_ref=1 / me_range=24 / chroma_me=1 / trellis=2 / 8x8dct=0 / cqm=0 / deadzone=21, 11 / fast_pskip=1 / chroma_qp_offset=-2 / threads=8 / lookahead_threads=1 / sliced_threads=0 / nr=0 / decimate=1 / interlaced=0 / bluray_compat=0 / stitchable=1 / constrained_intra=0 / bframes=2 / b_pyramid=0 / b_adapt=2 / b_bias=0 / direct=3 / weightb=1 / open_gop=0 / weightp=2 / keyint=250 / keyint_min=24 / scenecut=0 / intra_refresh=0 / rc_lookahead=48 / rc=2pass / mbtree=1 / bitrate=2596 / ratetol=1.0 / qcomp=0.50 / qpmin=6 / qpmax=51 / qpstep=4 / cplxblur=20.0 / qblur=0.5 / vbv_maxrate=4305 / vbv_bufsize=5740 / nal_hrd=vbr / filler=0 / ip_ratio=1.40 / aq=1:1.00
Language: English
Default: Yes
Forced: No

Audio #1
ID: 2
Format: AC-3
Format/Info: Audio Coding 3
Commercial name: Dolby Digital
Codec ID: A_AC3
Duration: 1 h 55 min
Bit rate mode: Constant
Bit rate: 448 kb/s
Channel(s): 6 channels
Channel layout: L R C LFE Ls Rs
Sampling rate: 48.0 kHz
Frame rate: 31.250 FPS (1536 SPF)
Compression mode: Lossy
Stream size: 371 MiB (14%)
Title: Дубляж
Language: Russian
Service kind: Complete Main
Default: Yes
Forced: Yes

Audio #2
ID: 3
Format: E-AC-3
Format/Info: Enhanced AC-3
Commercial name: Dolby Digital Plus
Codec ID: A_EAC3
Duration: 1 h 55 min
Bit rate mode: Constant
Bit rate: 640 kb/s
Channel(s): 6 channels
Channel layout: L R C LFE Ls Rs
Sampling rate: 48.0 kHz
Frame rate: 31.250 FPS (1536 SPF)
Compression mode: Lossy
Stream size: 531 MiB (19%)
Title: Original
Language: English
Service kind: Complete Main
Default: No
Forced: No

Text #1
ID: 4
Format: UTF-8
Codec ID: S_TEXT/UTF8
Codec ID/Info: UTF-8 Plain Text
Duration: 1 h 51 min
Bit rate: 77 b/s
Frame rate: 0.225 FPS
Count of elements: 1510
Stream size: 63.3 KiB (0%)
Title: Full
Language: Russian
Default: No
Forced: No

Text #2
ID: 5
Format: UTF-8
Codec ID: S_TEXT/UTF8
Codec ID/Info: UTF-8 Plain Text
Duration: 1 h 54 min
Bit rate: 61 b/s
Frame rate: 0.252 FPS
Count of elements: 1731
Stream size: 51.5 KiB (0%)
Title: Full
Language: English
Default: No
Forced: No




Скачать Шпион, которого не было через торрент https://i120.fastpic.org/big/2022/0809/17/c5fdb19941cccc6695846bd51ac7e317.jpg Скачать, смотреть онлайн Шпион, которого не было бесплантно в хорошем качестве Описание: История афериста Роберта Фригарда, обманывавшего людей, изображая агента МИ-5, и влюбившейся в него женщины, которая вывела его ... 8.7 10 7
Торрент: Зарегистрирован [2022-09-03 04:26] · скачан: 200 раз
Статус: √ проверено
Размер: 2.66 GB
Как cкачать? Как скачать Шпион, которого не было через торрент | UTorrent

% Раздел Тема Автор DL S | L
Фильмы (WEB-DL 720p, 1080p) [ 2.66 GB ] Шпион, которого не было / Двойной агент / Rogue Agent / Chasing Agent Freegard | Jaskier | 1080p bober100 Скачать
4 | 0

28-11-2019 20:33  


Отключить вcю реклaмy на сайте, в т.ч. и в плеере онлайн просмотра!

    Дорогой пользователь! Огромная просьба, поблагодарите релизера, оцените раздачу и оставьте свои комментарий, если Вы скачали Шпион, которого не было через торрент бесплатно!!
    Комментировать посты могут только пользователи прошедшие не сложную регистрацию
    Показать сообщения:    


    Шпион, которого не было через торрент
    Скачать бесплатно Шпион, которого не было
    Шпион, которого не было скачать торрент
    Шпион, которого не было смотреть онлайн
    Cкачать фильм Шпион, которого не было бесплатно
    Шпион, которого не было скачать торрент в хорошем качестве
    Шпион, которого не было смотреть онлайн бесплатно в хорошем качестве
    Вы не можете начинать темы
    Вы не можете отвечать на сообщения
    Вы не можете редактировать свои сообщения
    Вы не можете удалять свои сообщения
    Вы не можете голосовать в опросах
    Вы не можете прикреплять файлы к сообщениям
    Вы можете скачивать файлы
    Шпион, которого не было / Двойной агент / Rogue Agent / Chasing Agent Freegard [2022, Триллер, WEB-DL 1080p] Дубляж [Pride Production] смотреть онлайн, скачать торрент picoco.icu