Лицензия

MVO

1

1 сезон

Лицензия

Лицензия

13

MVO

1 сезон

Deluxe Edition

pack

Рекомендуем

30

Repack

ВАЖНО

ВАЖНО

Ghostwire

RePack

jed

RePack

fifa19

RePack

RDR2

RePack

NEED FOR SPEED™ PAYBACK

RePack

Кинопоиск HD

 Острые козырьки 6 сезон

6 сезон

FAR CRY 6

RePack

Лицензия

MVO

1

1 сезон

1 сезон

Лицензия

  

Остров сокровищ + Приключения капитана Врунгеля (Давид Черкасский) [1979-1988 г., Мюзикл, приключения, BDRip 720p / 60 FPS, Оригинальный] от R.G. HD-Films

Остров сокровищ + Приключения капитана Врунгеля через торрент pb.wtf

Раздают: 12 [ 0 KB/s ]
Размер: 9.41 GB | Добавлен: 20 д. назад | Торрент скачан:169 раз
Смотреть онлайн Остров сокровищ + Приключения капитана Врунгеля | Скачать   

04-09-2022 12:06 Остров сокровищ + Приключения капитана Врунгеля Скачать торрент  

Остров сокровищ + Приключения капитана Врунгеля
Год выпуска: 1979 - 1988
Страна: СССР
Жанр: Мюзикл, приключения
Продолжительность: 04:04:30
Перевод: Оригинальный

Режиссер: Давид Черкасский



В ролях: Владимир Заднепровский, Евгений Паперный, Армен Джигарханян, Юрий Яковлевб, Валерий Бессараб, Борис Вознюк, Георгий Кишко, Валерий Чигляев, Виктор Андриенко, Григорий Толчинский;
Георгий Кишко, Зиновий Гердт, Семен Фарада, Эдуард Назаров, Евгений Паперный, Григорий Шпигель, Вениамин Смехов, Александр Бурмистров, Георгий Кислюк

Описание: Морские приключения, затерянные острова и тайны океанских просторов, пираты и погони, невероятные сокровища и исторические ценности - что может быть интереснее и увлекательнее? Все мальчишки и девчонки мечтают об этом. А их папы и мамы не перестают вспоминать удивительный мир персонажей известных авторов, воплощенный на экране одним из лучших мультипликаторов современности - Давидом Черкасским.
Мультсериал студии "Киевнаучфильм" по сюжету одноименного романа Андрея Некрасова.
Христофору Врунгелю, известному мореходу, профессору навигации, приходит приглашение участвовать в международной регате. Специально для соревнований помощник Врунгеля матрос Лом построил яхту «Победа», но в результате досадного происшествия во время отплытия она получила название «Беда».


Качество: BDRip 720p / 60 FPS
Формат: MKV
Видео кодек: H.264
Аудио кодек: AC3
Видео: x264, 1024 x 720 ( 1,422 ), 5313 kbps, 60,000 fps, ( 0.120 bpp)
Аудио#1: AC3 / 2.0 / 48 kHz / 192 kbps / 16 bit | Оригинал
Релиз от: Автор рипа: slaventi-69
x264 [info]: using cpu capabilities: MMX2 SSE2Fast SSSE3 SSE4.2 AVX AVX2 FMA3 LZCNT BMI1 BMI2
x264 [info]: profile High, level 4.1
x264 [info]: frame I:3105 Avg QP:21.22 size: 81302
x264 [info]: frame P:284950 Avg QP:22.62 size: 20988
x264 [info]: frame B:592181 Avg QP:24.91 size: 5927
x264 [info]: consecutive B-frames: 11.3% 7.1% 7.7% 24.9% 28.0% 21.0%


Общее
Уникальный идентификатор : 201201919720049817830178347713692909626 (0x975E14885C6BE825BA9DE45F3D03403A)
Полное имя : G:\60 FPS\Ostrov.sokroviw_Prikljuchenija.kapitana.Vrungelya(1979-1988).BDRip.720p.(60 Fps).mkv
Формат : Matroska
Версия формата : Version 4
Размер файла : 9,41 Гбайт
Продолжительность : 4 ч. 4 м.
Общий поток : 5509 Кбит/сек
Название фильма : Остров сокровищ + Приключения капитана Врунгеля (1979-1988) BDRip 720p (60 Fps)
Дата кодирования : UTC 2022-09-04 11:42:54
Программа кодирования : mkvmerge v69.0.0 ('Day And Age') 64-bit
Библиотека кодирования : libebml v1.4.2 + libmatroska v1.6.4

Видео
Идентификатор : 1
Формат : AVC
Формат/Информация : Advanced Video Codec
Профиль формата : [email protected]
Настройки формата : CABAC / 9 Ref Frames
Параметр CABAC формата : Да
Параметр RefFrames формата : 9 кадров
Идентификатор кодека : V_MPEG4/ISO/AVC
Продолжительность : 4 ч. 4 м.
Битрейт : 5313 Кбит/сек
Ширина : 1024 пикселя
Высота : 720 пикселей
Соотношение сторон : 1,422
Режим частоты кадров : Постоянный
Частота кадров : 60,000 кадров/сек
Цветовое пространство : YUV
Субдискретизация насыщенности : 4:2:0
Битовая глубина : 8 бит
Тип развёртки : Прогрессивная
Бит/(Пиксели*Кадры) : 0.120
Размер потока : 9,07 Гбайт (96%)
Заголовок : slaventi-69 ( R.G. HD-Films | 60 fps )
Библиотека кодирования : x264 core 130 r2273 b3065e6
Настройки программы : cabac=1 / ref=9 / deblock=1:-3:-3 / analyse=0x3:0x133 / me=umh / subme=9 / psy=1 / psy_rd=1.00:0.00 / mixed_ref=1 / me_range=32 / chroma_me=1 / trellis=2 / 8x8dct=1 / cqm=0 / deadzone=21,11 / fast_pskip=0 / chroma_qp_offset=-2 / threads=8 / lookahead_threads=4 / sliced_threads=0 / nr=0 / decimate=1 / interlaced=0 / bluray_compat=0 / constrained_intra=0 / bframes=5 / b_pyramid=2 / b_adapt=2 / b_bias=0 / direct=1 / weightb=1 / open_gop=0 / weightp=2 / keyint=600 / keyint_min=23 / scenecut=40 / intra_refresh=0 / rc=crf / mbtree=0 / crf=18.5 / qcomp=0.60 / qpmin=0 / qpmax=69 / qpstep=4 / ip_ratio=1.40 / pb_ratio=1.30 / aq=1:1.00
Язык : Russian
Default : Да
Forced : Нет

Аудио
Идентификатор : 2
Формат : AC-3
Формат/Информация : Audio Coding 3
Коммерческое название : Dolby Digital
Идентификатор кодека : A_AC3
Продолжительность : 4 ч. 4 м.
Вид битрейта : Постоянный
Битрейт : 192 Кбит/сек
Каналы : 2 канала
Channel layout : L R
Частота : 48,0 КГц
Частота кадров : 31,250 кадров/сек (1536 SPF)
Битовая глубина : 16 бит
Метод сжатия : С потерями
Размер потока : 336 Мбайт (3%)
Язык : Russian
ServiceKind/String : Complete Main
Default : Да
Forced : Нет

Меню
00:00:00.000 : :Chapter 01
00:49:31.083 : :Chapter 02
01:51:16.916 : :Chapter 03
02:01:26.666 : :Chapter 04
02:11:28.791 : :Chapter 05
02:21:22.875 : :Chapter 06
02:31:57.958 : :Chapter 07
02:41:35.125 : :Chapter 08
02:51:50.291 : :Chapter 09
03:02:21.208 : :Chapter 10
03:12:49.249 : :Chapter 11
03:23:00.041 : :Chapter 12
03:33:35.249 : :Chapter 13
03:43:36.833 : :Chapter 14
03:53:56.916 : :Chapter 15

Просьба к переливающим на другие сайты, в оформлении указывайте пожалуйста авторство группы R.G. HD-Films



Скачать Остров сокровищ + Приключения капитана Врунгеля через торрент https://i.postimg.cc/GhmkDSS0/3dd479fcb35ba8a71ca38ad11152f4d6.png Скачать, смотреть онлайн Остров сокровищ + Приключения капитана Врунгеля бесплантно в хорошем качестве Описание: Морские приключения, затерянные острова и тайны океанских просторов, пираты и погони, невероятные сокровища и исторические ... 9.9 10 26
Info! Золотая раздача, скачанное не засчитывается.
Торрент: Зарегистрирован [2022-09-04 12:06] · скачан: 169 раз
Статус: √ проверено
Размер: 9.41 GB
Как cкачать? Как скачать Остров сокровищ + Приключения капитана Врунгеля через торрент | UTorrent

% Раздел Тема Автор DL S | L
Мультфильмы (48-60 fps) [ 4.59 GB ] Остров сокровищ / Приключения капитана Врунгеля | | 720p / 60 FPS, Оригинальный Tiberiumsun69 Скачать
2 | 0

28-11-2019 20:33  

Отключить вcю реклaмy на сайте

04-09-2022 12:54 Остров сокровищ + Приключения капитана Врунгеля Скачать торрент  

Самый мой любимый мультик из детства.



20-09-2022 05:01 Остров сокровищ + Приключения капитана Врунгеля Скачать торрент  

СПАСИБО ))))



20-09-2022 08:40 Остров сокровищ + Приключения капитана Врунгеля Скачать торрент  

Пожалуйста. Смотрите в удовольствие.



    Дорогой пользователь! Огромная просьба, поблагодарите релизера, оцените раздачу и оставьте свои комментарий, если Вы скачали Остров сокровищ + Приключения капитана Врунгеля через торрент бесплатно!!
    Комментировать посты могут только пользователи прошедшие не сложную регистрацию
    Показать сообщения:    


    Остров сокровищ + Приключения капитана Врунгеля через торрент
    Скачать бесплатно Остров сокровищ + Приключения капитана Врунгеля
    Остров сокровищ + Приключения капитана Врунгеля скачать торрент
    Остров сокровищ + Приключения капитана Врунгеля смотреть онлайн
    Cкачать фильм Остров сокровищ + Приключения капитана Врунгеля бесплатно
    Остров сокровищ + Приключения капитана Врунгеля скачать торрент в хорошем качестве
    Остров сокровищ + Приключения капитана Врунгеля смотреть онлайн бесплатно в хорошем качестве
    Вы не можете начинать темы
    Вы не можете отвечать на сообщения
    Вы не можете редактировать свои сообщения
    Вы не можете удалять свои сообщения
    Вы не можете голосовать в опросах
    Вы не можете прикреплять файлы к сообщениям
    Вы можете скачивать файлы