Доктор Стрэндж

Лицензия

Добыча

Дубляж

Уэнсдэй

1 сезон

Тор

Дубляж

В эфире

Дубляж

Там, где раки поют

MVO

Властелин колец

1 сезон

Deluxe

pack

Рекомендуем

30

Пиратка

ВАЖНО

ВАЖНО

Ghostwire

Пиратка

jed

RePack

nioh2

RePack

RDR2

RePack

NEED FOR SPEED™ PAYBACK

RePack

скачать торрент

Кинопоиск HD

Острые козырьки 6 сезон

6 сезон

FAR CRY 6

RePack

скачать торрент

Лицензия

скачать торрент

MVO

1

1 сезон

скачать торрент

1 сезон

скачать торрент

Лицензия

  

Сквозь темное стекло / Through the Glass Darkly (Лорен Фаш) [2020, Триллер, WEB-DL 1080p] Дубляж [Zone Vision]

Сквозь темное стекло через торрент pb.wtf

Раздают: 3 [ 350 KB/s ]
Размер: 5.35 GB | Добавлен: 3 мес. назад | Торрент скачан:73 раза
Смотреть онлайн | Скачать   

05-09-2022 01:50 Сквозь темное стекло Скачать торрент  

Сквозь темное стекло
Through the Glass Darkly

Год выпуска: 2020
Страна: США
Студия: However Productions
Жанр: Триллер
Продолжительность: 01:43:32
Перевод: Дублированный | Zone Vision
Субтитры: Aнглийские

Режиссер: Лорен Фаш

rating

В ролях: Робин Лайвли, Шанола Хэмптон, Майкл Трукко, Кинсли Айла Диллон, Бетани Энн Линд, Катрина Норма, Джудит Айви, Керри Кехилл, Сиси Келли, Николас Логан

Описание: Через год после исчезновения дочери Чарли пропадает еще одна девушка из Элрода, штат Джорджия. Убежденная в том, что между этими исчезновениями существует связь, Чарли вызывает подозрения и презрение у местных правоохранительных органов и горожан, поскольку она ни перед чем не останавливается, чтобы самую разрушительную и мрачную тайну этого города.

Качество: WEB-DL 1080p
Формат: MKV

Видео: MPEG-4 AVC, 1912x796, 6632 Kbit/s, 23.976 fps
Аудио #01: 48 kHz, AC3, 5.1, 384 Kbps | iTunes | RUS |
Аудио #02: 48 kHz, AC3, 5.1, 384 Kbps | Оригинал | ENG |
скриншот  скриншот  скриншот  скриншот  скриншот  

General
Unique ID: 144505456336862965890121161885546592586 (0x6CB6BD11863D1A51B661DC9C8D1A394A)
Complete name: F:VideoThrough.the.Glass.Darkly.2021.WEB-DL.1080p.seleZen.mkv
Format: Matroska
Format version: Version 4
File size: 5.35 GiB
Duration: 1 h 43 min
Overall bit rate: 7 402 kb/s
Movie name: Through the Glass Darkly 2021 from seleZen
Encoded date: UTC 2022-09-05 00:20:39
Writing application: mkvmerge v59.0.0 ('Shining Star') 64-bit
Writing library: libebml v1.4.2 + libmatroska v1.6.4

Video
ID: 1
Format: AVC
Format/Info: Advanced Video Codec
Format profile: [email protected]
Format settings: CABAC / 5 Ref Frames
Format settings, CABAC: Yes
Format settings, Reference: 5 frames
Codec ID: V_MPEG4/ISO/AVC
Duration: 1 h 43 min
Bit rate: 6 632 kb/s
Width: 1 912 pixels
Height: 796 pixels
Display aspect ratio: 2.40:1
Frame rate mode: Constant
Frame rate: 23.976 (24000/1001) FPS
Color space: YUV
Chroma subsampling: 4:2:0
Bit depth: 8 bits
Scan type: Progressive
Bits/(Pixel*Frame): 0.182
Stream size: 4.80 GiB (90%)
Language: English
Default: Yes
Forced: No
Color range: Limited
Color primaries: BT.709
Transfer characteristics: BT.709
Matrix coefficients: BT.709

Audio #1
ID: 2
Format: AC-3
Format/Info: Audio Coding 3
Commercial name: Dolby Digital
Codec ID: A_AC3
Duration: 1 h 43 min
Bit rate mode: Constant
Bit rate: 384 kb/s
Channel(s): 6 channels
Channel layout: L R C LFE Ls Rs
Sampling rate: 48.0 kHz
Frame rate: 31.250 FPS (1536 SPF)
Compression mode: Lossy
Stream size: 284 MiB (5%)
Title: Дубляж
Language: Russian
Service kind: Complete Main
Default: Yes
Forced: Yes

Audio #2
ID: 3
Format: AC-3
Format/Info: Audio Coding 3
Commercial name: Dolby Digital
Codec ID: A_AC3
Duration: 1 h 43 min
Bit rate mode: Constant
Bit rate: 384 kb/s
Channel(s): 6 channels
Channel layout: L R C LFE Ls Rs
Sampling rate: 48.0 kHz
Frame rate: 31.250 FPS (1536 SPF)
Compression mode: Lossy
Stream size: 284 MiB (5%)
Title: Original
Language: English
Service kind: Complete Main
Default: No
Forced: No

Text
ID: 4
Format: UTF-8
Codec ID: S_TEXT/UTF8
Codec ID/Info: UTF-8 Plain Text
Duration: 1 h 38 min
Bit rate: 58 b/s
Frame rate: 0.249 FPS
Count of elements: 1476
Stream size: 42.3 KiB (0%)
Title: Original
Language: English
Default: No
Forced: No




Скачать Сквозь темное стекло через торрент https://i120.fastpic.org/big/2022/0905/d9/1d6e6d8a9b22dcb0dbe1c8412c040fd9.jpg Скачать, смотреть онлайн Сквозь темное стекло бесплантно в хорошем качестве Описание: Через год после исчезновения дочери Чарли пропадает еще одна девушка из Элрода, штат Джорджия. Убежденная в том, что между этими ... 10 10 4
Торрент: Зарегистрирован [2022-09-05 01:50] · скачан: 73 раз
Статус: √ проверено
Размер: 5.35 GB
Как cкачать? Как скачать Сквозь темное стекло через торрент | UTorrent

% Раздел Тема Автор DL S | L
Фильмы 2019-2020 [DVDrip, WEB-DLRip, HDrip] (DUB, MVO) [ 1.46 GB ] Сквозь темное стекло / Through the Glass Darkly | DUB | DLRip bober100 Скачать
3 | 1

28-11-2019 20:33  


Отключить вcю реклaмy на сайте, в т.ч. и в плеере онлайн просмотра!

    Дорогой пользователь! Огромная просьба, поблагодарите релизера, оцените раздачу и оставьте свои комментарий, если Вы скачали Сквозь темное стекло через торрент бесплатно!!
    Комментировать посты могут только пользователи прошедшие не сложную регистрацию
    Показать сообщения:    


    Сквозь темное стекло через торрент
    Скачать бесплатно Сквозь темное стекло
    Сквозь темное стекло скачать торрент
    Сквозь темное стекло смотреть онлайн
    Cкачать фильм Сквозь темное стекло бесплатно
    Сквозь темное стекло скачать торрент в хорошем качестве
    Сквозь темное стекло смотреть онлайн бесплатно в хорошем качестве
    Вы не можете начинать темы
    Вы не можете отвечать на сообщения
    Вы не можете редактировать свои сообщения
    Вы не можете удалять свои сообщения
    Вы не можете голосовать в опросах
    Вы не можете прикреплять файлы к сообщениям
    Вы можете скачивать файлы
    Сквозь темное стекло / Through the Glass Darkly [2020, Триллер, WEB-DL 1080p] Дубляж [Zone Vision] смотреть онлайн, скачать торрент picoco.icu