Доктор Стрэндж

Лицензия

Добыча

MVO

Дом дракона

1 сезон

Тор

Лицензия

Мэверик

Лицензия

Там, где раки поют

MVO

Властелин колец

1 сезон

Ultimate

pack

Рекомендуем

30

Repack

ВАЖНО

ВАЖНО

Ghostwire

RePack

jed

RePack

nioh2

RePack

RDR2

RePack

NEED FOR SPEED™ PAYBACK

RePack

скачать торрент

Кинопоиск HD

Острые козырьки 6 сезон

6 сезон

FAR CRY 6

RePack

скачать торрент

Лицензия

скачать торрент

MVO

1

1 сезон

скачать торрент

1 сезон

скачать торрент

Лицензия

  

Доспехи Бога 3: Миссия Зодиак в 3Д / Chinese Zodiac 3D (Джeки Чaн) [2012 г., Боевик, Комедия, Приключения, 3D BDRip 1080p, Дубляж] Анаглиф (Дюбуа) от R.G. HD-Films

Доспехи Бога 3: Миссия Зодиак в 3Д через торрент pb.wtf

Размер: 7.45 GB | Добавлен: 27 д. назад | Торрент скачан:3 раза
Смотреть онлайн Доспехи Бога 3: Миссия Зодиак в 3Д | Скачать   

05-09-2022 14:58 Доспехи Бога 3: Миссия Зодиак в 3Д Скачать торрент  

Доспехи Бога 3: Миссия Зодиак / Chinese Zodiac
Год выпуска: 2012
Страна: Китай
Жанр: Боевик, Комедия, Приключения
Продолжительность: 02:03:05
Перевод: Дубляж
Субтитры: русские, английские

Режиссер: Джeки Чaн

rating

Роли исполняли (дублировали): Джеки Чан (Андрей Бархударов), Квон Сан У (Прохор Чеховской), Ляо Фань (Даниил Эльдаров), Синтхун Яо, Чжан Ланьсинь (Анастасия Жаркова), Лаура Вейссбеккер, Оливер Платт (Александр Новиков), Шу Ци, Дэниэл Ву, Кэйтлин Дешель, Алаа Омузун (Сергей Смирнов), Эмили Гуйо, Рэни Бимак...

Описание: Главный герой истории — работающий по всему миру охотник за сокровищами Джей Си по кличке Ястреб. Известный антиквар предлагает ему отыскать шесть редких статуэток в виде голов животных. В свое время эти бронзовые скульптуры входили в набор из 12-ти предметов, олицетворявших знаки зодиака. Фигурки украшали фонтан легендарного Летнего дворца на окраине Пекина. В 1860 году величественное сооружение было разграблено и разрушено англо-французскими войсками на исходе Второй опиумной войны, а статуэтки безвозвратно утеряны.
Сначала Джей Си с командой помощников отправляется во Францию, поскольку две статуэтки хранятся у одного из французских коллекционеров. В процессе операции по изъятию бронзовых скульптур из хорошо охраняемого замка Джей Си знакомится с Коко — китайской студенткой, учащейся в Париже. Девушка принимает активное участие в глобальной кампании по возвращению утраченных культурных ценностей в страны, откуда они были вывезены. Попутно Джей Си наживает себе злейшего врага в лице Пьера, шефа охраны замка Шато Марсо. Вместе с тем, охотник за сокровищами обретает верного друга в лице Кэтрин, разорившейся аристократки, в доме которой он находит одну из статуэток. Коко и Кэтрин присоединяются к компании Ястреба.
Группа в обновленном составе направляется на тропический остров, где среди обломков севшего на мель корабля спрятаны еще две статуэтки. В тропиках Джею Си и его друзьям противостоит банда разношерстных пиратов. Только благодаря безупречным боевым навыкам героя удается одержать верх. Вернувшись домой, Джей Си с удивлением узнает, что таинственный заказчик уже собрал шесть других статуэток. Ничего удивительного в том, что Ястреб собирается преподать ему урок хороших манер.


Доп. информация: Формат 3D: Анаглиф (Дюбуа)



Качество: 3D BDRip 1080p
Формат: MKV
Видео кодек: H.264
Аудио кодек: AC3
Видео: 1920 x 1080 (16:9), 8028 kbps, 23,976 fps, 0.161 bpp
Аудио#1: Русский / AC3 / 48 KHz / 5.1 ch / 640 Kbps (BD3D Rus)
Релиз от: Автор рипа: slaventi-69
Общее
Уникальный идентификатор : 193269656553612265456130849220367933724 (0x916661C387BA45F9767358FDDCEAE11C)
Полное имя : G:\60 FPS\Chinese.Zodiac.(2012).3D.(Anaglyph_Dubois).mkv
Формат : Matroska
Версия формата : Version 4
Размер файла : 7,45 Гбайт
Продолжительность : 2 ч. 3 м.
Общий поток : 8670 Кбит/сек
Название фильма : Доспехи Бога 3: Миссия Зодиак / Chinese Zodiac ( 2012) 3D (Anaglyph_Dubois)
Дата кодирования : UTC 2022-09-05 14:36:38
Программа кодирования : mkvmerge v69.0.0 ('Day And Age') 64-bit
Библиотека кодирования : libebml v1.4.2 + libmatroska v1.6.4

Видео
Идентификатор : 1
Формат : AVC
Формат/Информация : Advanced Video Codec
Профиль формата : [email protected]
MultiView_Count : 2
MultiView_Layout : Anaglyph (cyan/red)
Настройки формата : CABAC / 4 Ref Frames
Параметр CABAC формата : Да
Параметр RefFrames формата : 4 кадра
Идентификатор кодека : V_MPEG4/ISO/AVC
Продолжительность : 2 ч. 3 м.
Битрейт : 8028 Кбит/сек
Ширина : 1920 пикселей
Высота : 1080 пикселей
Соотношение сторон : 16:9
Режим частоты кадров : Постоянный
Частота кадров : 23,976 (24000/1001) кадра/сек
Цветовое пространство : YUV
Субдискретизация насыщенности : 4:2:0
Битовая глубина : 8 бит
Тип развёртки : Прогрессивная
Бит/(Пиксели*Кадры) : 0.161
Размер потока : 6,90 Гбайт (93%)
Заголовок : slaventi-69 ( R.G. HD-Films ) 3D (Anaglyph_Dubois)
Библиотека кодирования : x264 core 130 r2273 b3065e6
Настройки программы : cabac=1 / ref=4 / deblock=1:-1:-1 / analyse=0x3:0x133 / me=umh / subme=9 / psy=1 / psy_rd=1.00:0.00 / mixed_ref=1 / me_range=32 / chroma_me=1 / trellis=2 / 8x8dct=1 / cqm=0 / deadzone=21,11 / fast_pskip=0 / chroma_qp_offset=-2 / threads=8 / lookahead_threads=4 / sliced_threads=0 / nr=0 / decimate=1 / interlaced=0 / bluray_compat=0 / constrained_intra=0 / bframes=4 / b_pyramid=2 / b_adapt=2 / b_bias=0 / direct=1 / weightb=1 / open_gop=0 / weightp=2 / keyint=600 / keyint_min=23 / scenecut=40 / intra_refresh=0 / rc=crf / mbtree=0 / crf=21.5 / qcomp=0.60 / qpmin=0 / qpmax=69 / qpstep=4 / ip_ratio=1.40 / pb_ratio=1.30 / aq=1:1.00
Язык : Chinese
Default : Да
Forced : Нет

Аудио
Идентификатор : 2
Формат : AC-3
Формат/Информация : Audio Coding 3
Коммерческое название : Dolby Digital
Идентификатор кодека : A_AC3
Продолжительность : 2 ч. 3 м.
Вид битрейта : Постоянный
Битрейт : 640 Кбит/сек
Каналы : 6 каналов
Channel layout : L R C LFE Ls Rs
Частота : 48,0 КГц
Частота кадров : 31,250 кадров/сек (1536 SPF)
Битовая глубина : 16 бит
Метод сжатия : С потерями
Размер потока : 563 Мбайт (7%)
Заголовок : Дубляж - BD3D Rus
Язык : Russian
ServiceKind/String : Complete Main
Default : Да
Forced : Нет

Текст #1
Идентификатор : 3
Формат : UTF-8
Идентификатор кодека : S_TEXT/UTF8
Идентификатор кодека/Информация : UTF-8 Plain Text
Продолжительность : 1 ч. 55 м.
Битрейт : 99 бит/сек
ElementCount : 1482
Размер потока : 84,4 Кбайт (0%)
Заголовок : Full
Язык : Russian
Default : Нет
Forced : Нет

Текст #2
Идентификатор : 4
Формат : UTF-8
Идентификатор кодека : S_TEXT/UTF8
Идентификатор кодека/Информация : UTF-8 Plain Text
Продолжительность : 1 ч. 55 м.
Битрейт : 55 бит/сек
ElementCount : 1936
Размер потока : 47,5 Кбайт (0%)
Заголовок : Full
Язык : English
Default : Нет
Forced : Нет

Меню
00:00:00.000 : :1
00:11:28.021 : :2
00:18:16.429 : :3
00:25:15.347 : :4
00:33:39.559 : :5
00:44:12.108 : :6
00:55:15.312 : :7
01:10:04.242 : :8
01:16:55.778 : :9
01:25:34.087 : :10
01:39:21.706 : :11
01:50:38.423 : :12

Просьба к переливающим на другие сайты, в оформлении указывайте пожалуйста авторство группы R.G. HD-Films



Скачать Доспехи Бога 3: Миссия Зодиак в 3Д через торрент https://i120.fastpic.org/big/2022/0905/1a/f2a030d5ebad011d365d7651e9b5301a.jpg Скачать, смотреть онлайн Доспехи Бога 3: Миссия Зодиак в 3Д бесплантно в хорошем качестве Описание: Главный герой истории — работающий по всему миру охотник за сокровищами Джей Си по кличке Ястреб. Известный антиквар предлагает ... 10 10 2
Торрент: Зарегистрирован [2022-09-05 14:58] · скачан: 3 раз
Статус: √ проверено
Размер: 7.45 GB
Как cкачать? Как скачать Доспехи Бога 3: Миссия Зодиак в 3Д через торрент | UTorrent

28-11-2019 20:33  

Отключить вcю реклaмy на сайте

    Дорогой пользователь! Огромная просьба, поблагодарите релизера, оцените раздачу и оставьте свои комментарий, если Вы скачали Доспехи Бога 3: Миссия Зодиак в 3Д через торрент бесплатно!!
    Комментировать посты могут только пользователи прошедшие не сложную регистрацию
    Показать сообщения:    


    Доспехи Бога 3: Миссия Зодиак в 3Д через торрент
    Скачать бесплатно Доспехи Бога 3: Миссия Зодиак в 3Д
    Доспехи Бога 3: Миссия Зодиак в 3Д скачать торрент
    Доспехи Бога 3: Миссия Зодиак в 3Д смотреть онлайн
    Cкачать фильм Доспехи Бога 3: Миссия Зодиак в 3Д бесплатно
    Доспехи Бога 3: Миссия Зодиак в 3Д скачать торрент в хорошем качестве
    Доспехи Бога 3: Миссия Зодиак в 3Д смотреть онлайн бесплатно в хорошем качестве
    Вы не можете начинать темы
    Вы не можете отвечать на сообщения
    Вы не можете редактировать свои сообщения
    Вы не можете удалять свои сообщения
    Вы не можете голосовать в опросах
    Вы не можете прикреплять файлы к сообщениям
    Вы можете скачивать файлы