Достать ножи: Стеклянная луковица

MVO

Добыча

Дубляж

Уэнсдэй

1 сезон

Тор

Дубляж

13 клиническая

1 сезон

Жестокая ночь

MVO

Одни из нас

1 сезон

Deluxe

pack

Рекомендуем

30

Пиратка

ВАЖНО

ВАЖНО

Ghostwire

Пиратка

jed

RePack

nioh2

RePack

RDR2

RePack

NEED FOR SPEED™ PAYBACK

RePack

скачать торрент

Кинопоиск HD

Острые козырьки 6 сезон

6 сезон

FAR CRY 6

RePack

скачать торрент

Лицензия

скачать торрент

MVO

1

1 сезон

скачать торрент

1 сезон

скачать торрент

Лицензия

  

Знахарь / Znachor (Ежи Гоффман) [1981 г., Драма, мелодрама, HDTVRip - HEVC 1080p 10 bit 60 FPS, Дубляж]

Знахарь через торрент pb.wtf

Раздают: 1 [ 0 KB/s ]
Размер: 3.55 GB | Добавлен: 4 мес. 24 д. назад | Торрент скачан:41 раз
Смотреть онлайн | Скачать | Поддержите нас   

05-09-2022 17:23 Знахарь Скачать торрент  

Znachor
Информация Описание:
Название: Знахарь
Оригинальное название: Znachor
Год выхода: 1981
Жанр: драма, мелодрама
Режиссер: Ежи Гоффман
В ролях: Ежи Биньчицкий, Анна Дымна, Бернард Ладыш, Томаш Стокингер, Артур Барцись, Божена Дыкель, Петр Грабовский, Ирена Буравская, Янина Бороньская, Анджей Копичиньский, Игор Смяловский, Мария Хомерская, Пётр Фрончевский, Ежи Треля, Ежи Блёк, Ежи Брашка, Юзеф Збируг, Аркадиуш Базак, Анджей Красицкий, Анджей Шалявский, Густав Люткевич, Казимеж Ивиньский, Войцех Пилярский, Богуслав Сохнацкий, Ирина Ожеховская-Пескова
Описание: С гениальным хирургом Рафалом Вильчуром происходит трагедия, изменившая всю его жизнь. Уходят жена и дочь, в тот же день он оказывается на улице без денег и документов. Ему приходится пережить несколько лет скитаний и горя.

И все-таки судьба поворачивается к нему лицом. Найдя приют в семье мельника, он спасает его больного сына и становится членом семьи. Молва о «знахаре» расходится по всей округе... А вскоре он встречает и красивую девушку, похожую на жену...


Страна: Польша
Студия: Польша,Студия художественных фильмов (Лодзь)
Продолжительность: 02:07:59
Перевод: Дублированый |
Субтитры: русские |
Навигация по главам: нет
Информация о файле:
Качество: HDTVRip - HEVC 1080p Rip by DD2D3
Формат: MKV
Видео: V_MPEGH/ISO/HEVC; 1920x1080 (16:9); 3701 Kbps; 60 fps; 0,030 bpp
Аудио: русский; AC3; 192 Kbps; CBR; 2 ch ||
Доп. информация: Open MaTTe, присутствуют логотипы

Общее
Уникальный идентификатор : 209069853166600927619162312018186592469 (0x9D496399F990820F9441418B96F5E0D5)
Полное имя : E:\Znachor (1981) [Open Matte] HDTVRip - HEVC 1080p 10 bit 60 FPS.mkv
Формат : Matroska
Версия формата : Version 2
Размер файла : 3,55 Гбайт
Продолжительность : 2 ч. 7 м.
Общий поток : 3 973 Кбит/сек
Название фильма : Rip by from DD2D3
Дата кодирования : UTC 2022-09-05 16:27:29
Программа кодирования : mkvmerge v6.9.1 ('Blue Panther') 32bit built on Apr 18 2014 18:15:44
Библиотека кодирования : libebml v1.3.0 + libmatroska v1.4.1
Attachments : poster

Видео
Идентификатор : 1
Формат : HEVC
Формат/Информация : High Efficiency Video Coding
Профиль формата : Main [email protected]@Main
Идентификатор кодека : V_MPEGH/ISO/HEVC
Продолжительность : 2 ч. 7 м.
Битрейт : 3 701 Кбит/сек
Ширина : 1 920 пикселей
Высота : 1 080 пикселей
Соотношение сторон : 16:9
Режим частоты кадров : Постоянный
Частота кадров : 60,000 кадров/сек
Цветовое пространство : YUV
Субдискретизация насыщенности : 4:2:0
Битовая глубина : 10 бит
Бит/(Пиксели*Кадры) : 0.030
Размер потока : 3,31 Гбайт (93%)
Default : Да
Forced : Нет
Цветовой диапазон : Limited
Основные цвета : BT.709
Характеристики трансфера : BT.709
Коэффициенты матрицы : BT.709

Аудио
Идентификатор : 2
Формат : AC-3
Формат/Информация : Audio Coding 3
Коммерческое название : Dolby Digital
Идентификатор кодека : A_AC3
Продолжительность : 2 ч. 7 м.
Вид битрейта : Постоянный
Битрейт : 192 Кбит/сек
Каналы : 2 канала
Channel layout : L R
Частота : 48,0 КГц
Частота кадров : 31,250 кадров/сек (1536 SPF)
Метод сжатия : С потерями
Размер потока : 176 Мбайт (5%)
Язык : Russian
Service kind : Complete Main
Default : Нет
Forced : Нет

Текст
Идентификатор : 3
Формат : UTF-8
Идентификатор кодека : S_TEXT/UTF8
Идентификатор кодека/Информация : UTF-8 Plain Text
Язык : Russian
Default : Да
Forced : Нет




Скачать Знахарь через торрент https://a.picpig.ru/2022/09/05/DVD-Box-Cover-Mockup-Free-PSD-KOPIY.jpg Скачать, смотреть онлайн Знахарь бесплантно в хорошем качестве Описание: Название: Знахарь Оригинальное название: Znachor Год выхода: 1981 Жанр: драма, мелодрама Режиссер: Ежи Гоффман В ролях: Ежи ... 9.5 10 10
Торрент: Зарегистрирован [2022-09-05 17:23] · скачан: 41 раз
Статус: √ проверено
Размер: 3.55 GB
Как cкачать? Как скачать Знахарь через торрент | UTorrent

% Раздел Тема Автор DL S | L
Фильмы до 2000 г. [ 7.03 GB ] Знахарь / Znachor | | Знахарь / Znachor (Ежи Гоффман Стpана Скачать
1 | 0
Фильмы до 2000 г. [ 1.69 GB ] Знахарь / Znachor | | DVDRip Azazel Скачать
1 | 0

28-11-2019 20:33  


Отключить вcю реклaмy на сайте, в т.ч. и в плеере онлайн просмотра!

06-09-2022 03:59 Знахарь Скачать торрент  

мощнейшее кино!



06-09-2022 10:24 Знахарь Скачать торрент  

концовка кино просто трогает душу.



    Дорогой пользователь! Огромная просьба, поблагодарите релизера, оцените раздачу и оставьте свои комментарий, если Вы скачали Знахарь через торрент бесплатно!!
    Комментировать посты могут только пользователи прошедшие не сложную регистрацию
    Показать сообщения:    


    Знахарь через торрент
    Скачать бесплатно Знахарь
    Знахарь скачать торрент
    Знахарь смотреть онлайн
    Cкачать фильм Знахарь бесплатно
    Знахарь скачать торрент в хорошем качестве
    Знахарь смотреть онлайн бесплатно в хорошем качестве
    Вы не можете начинать темы
    Вы не можете отвечать на сообщения
    Вы не можете редактировать свои сообщения
    Вы не можете удалять свои сообщения
    Вы не можете голосовать в опросах
    Вы не можете прикреплять файлы к сообщениям
    Вы можете скачивать файлы
    Знахарь / Znachor [1981 г., Драма, мелодрама, HDTVRip - HEVC 1080p 10 bit 60 FPS, Дубляж] смотреть онлайн, скачать торрент picoco.icu