Доктор Стрэндж

Лицензия

Добыча

Дубляж

Уэнсдэй

1 сезон

Тор

Дубляж

В эфире

Дубляж

Там, где раки поют

MVO

Властелин колец

1 сезон

Deluxe

pack

Рекомендуем

30

Пиратка

ВАЖНО

ВАЖНО

Ghostwire

Пиратка

jed

RePack

nioh2

RePack

RDR2

RePack

NEED FOR SPEED™ PAYBACK

RePack

скачать торрент

Кинопоиск HD

Острые козырьки 6 сезон

6 сезон

FAR CRY 6

RePack

скачать торрент

Лицензия

скачать торрент

MVO

1

1 сезон

скачать торрент

1 сезон

скачать торрент

Лицензия

  

Дитя тьмы: Первая жертва / Orphan: First Kill (Уильям Брент Белл) [2022, Ужасы, триллер, драма, криминал, детектив, BDRip 1080p] Дубляж [СиПиАй Филмз / CPI Films]

Дитя тьмы: Первая жертва через торрент pb.wtf

Раздают: 2 [ 0 KB/s ]
Размер: 11.77 GB | Добавлен: 1 мес. 25 д. назад | Торрент скачан:51 раз
Смотреть онлайн | Скачать   

07-09-2022 03:24 Дитя тьмы: Первая жертва Скачать торрент  

Дитя тьмы: Первая жертва
Orphan: First Kill

Год выпуска: 2022
Страна: США
Выпущено: Dark Castle Entertainment, Eagle Vision, Entertainment One
Жанр: Ужасы, триллер, драма, криминал, детектив
Продолжительность: 01:38:40
Перевод: Дублированный | СиПиАй Филмз / CPI Films
Субтитры: Aнглийские

Режиссер: Уильям Брент Белл

rating

В ролях: Изабель Фурман, Джулия Стайлз, Россиф Сазерленд, Хиро Канагава, Мэттью Финлан, Саманта Уолкс, Дэвид Браун, Лорен Кокрейн, Гвендолин Коллинс, Кристен Савацки

Описание: Сбежав из психиатрической больницы, Лина направляется в Америку, выдавая себя за Эстер, пропавшую дочь богатой семьи. В качестве Эстер она сталкивается с неожиданным препятствием - приемная мама намерена бороться за жизнь своей семьи и победить во что бы то ни стало.

Качество: BDRip 1080p
Формат: MKV

Видео: AVC/H.264, 1920x1038, ~15,2 Мbps, 23,976 fps
Аудио #1: 48 kHz, AC3, 6 ch, 384 Кбит/с | RUS |
Аудио #2: 48 kHz, DTS, 6 ch, 1509 Кбит/с | ENG |
скриншот  скриншот  скриншот  скриншот  

Общее
Уникальный идентификатор : 44826482066346633061706984991313643083 (0x21B94433881DEAEDBA52FF1CDB3C464B)
Полное имя : Orphan_First Kill.2022.BDRip.1080p.W.mkv
Формат : Matroska
Версия формата : Version 4
Размер файла : 11,8 Гбайт
Продолжительность : 1 ч. 38 м.
Общий поток : 17,1 Мбит/сек
Название фильма : Orphan_First Kill.2022.BDRip.1080p.W
Дата кодирования : UTC 2022-10-10 18:03:46
Программа кодирования : mkvmerge v23.0.0 ('The Bride Said No') 64-bit
Библиотека кодирования : libebml v1.3.6 + libmatroska v1.4.9

Видео
Идентификатор : 1
Формат : AVC
Формат/Информация : Advanced Video Codec
Профиль формата : [email protected]
Настройки формата : CABAC / 4 Ref Frames
Параметр CABAC формата : Да
Параметр RefFrames формата : 4 кадра
Идентификатор кодека : V_MPEG4/ISO/AVC
Продолжительность : 1 ч. 38 м.
Битрейт : 15,2 Мбит/сек
Ширина : 1 920 пикселей
Высота : 1 038 пикселей
Соотношение сторон : 1,85:1
Режим частоты кадров : Постоянный
Частота кадров : 23,976 (24000/1001) кадра/сек
Цветовое пространство : YUV
Субдискретизация насыщенности : 4:2:0
Битовая глубина : 8 бит
Тип развёртки : Прогрессивная
Бит/(Пиксели*Кадры) : 0.318
Размер потока : 10,5 Гбайт (89%)
Библиотека кодирования : x264 core 163 r3059+79M ~ Encoded by Mocunaman in Portugal
Настройки программы : cabac=1 / ref=4 / deblock=1:-3:-3 / analyse=0x3:0x113 / me=umh / subme=10 / psy=1 / fade_compensate=0.00 / psy_rd=1.00:0.00 / mixed_ref=1 / me_range=32 / chroma_me=1 / trellis=2 / 8x8dct=1 / cqm=0 / deadzone=21,11 / fast_pskip=0 / chroma_qp_offset=-2 / threads=32 / lookahead_threads=5 / sliced_threads=0 / nr=0 / decimate=0 / interlaced=0 / bluray_compat=0 / constrained_intra=0 / fgo=0 / bframes=8 / b_pyramid=2 / b_adapt=2 / b_bias=0 / direct=3 / weightb=1 / open_gop=0 / weightp=2 / keyint=250 / keyint_min=23 / scenecut=40 / intra_refresh=0 / rc_lookahead=60 / rc=crf / mbtree=0 / crf=18.0000 / qcomp=0.60 / qpmin=0:0:0 / qpmax=69:69:69 / qpstep=4 / vbv_maxrate=62500 / vbv_bufsize=78125 / crf_max=0.0 / nal_hrd=none / filler=0 / ip_ratio=1.30 / pb_ratio=1.20 / aq=3:0.85 / aq-sensitivity=10.00 / aq-factor=1.00:1.00:1.00 / aq2=0 / aq3=0 / zones=1416,3840,crf=16/5520,12978,crf=17/22050,24099,crf=16/24123,26707,crf=16/28219,29899,crf=16/34291,36321,crf=16/43617,47049,crf=16/88209,89400,crf=16/97351,99529,crf=17/100868,102748,crf=17/112156,112824,crf=16/116523,117884,crf=16
Язык : English
Default : Да
Forced : Нет
Цветовой диапазон : Limited
Основные цвета : BT.709
Характеристики трансфера : BT.709
Коэффициенты матрицы : BT.709

Аудио #1
Идентификатор : 2
Формат : AC-3
Формат/Информация : Audio Coding 3
Коммерческое название : Dolby Digital
Идентификатор кодека : A_AC3
Продолжительность : 1 ч. 38 м.
Вид битрейта : Постоянный
Битрейт : 384 Кбит/сек
Каналы : 6 каналов
Channel layout : L R C LFE Ls Rs
Частота : 48,0 КГц
Частота кадров : 31,250 кадров/сек (1536 SPF)
Метод сжатия : С потерями
Размер потока : 271 Мбайт (2%)
Заголовок : Дубляж
Язык : Russian
Service kind : Complete Main
Default : Да
Forced : Нет

Аудио #2
Идентификатор : 3
Формат : DTS
Формат/Информация : Digital Theater Systems
Идентификатор кодека : A_DTS
Продолжительность : 1 ч. 38 м.
Вид битрейта : Постоянный
Битрейт : 1 509 Кбит/сек
Каналы : 6 каналов
Channel layout : C L R Ls Rs LFE
Частота : 48,0 КГц
Частота кадров : 93,750 кадра/сек (512 SPF)
Битовая глубина : 24 бит
Метод сжатия : С потерями
Размер потока : 1,04 Гбайт (9%)
Язык : English
Default : Нет
Forced : Нет

Текст #1
Идентификатор : 4
Формат : UTF-8
Идентификатор кодека : S_TEXT/UTF8
Идентификатор кодека/Информация : UTF-8 Plain Text
Продолжительность : 1 ч. 29 м.
Битрейт : 42 бит/сек
Частота кадров : 0,151 кадр/сек
Count of elements : 812
Размер потока : 27,6 Кбайт (0%)
Язык : English
Default : Нет
Forced : Нет

Текст #2
Идентификатор : 5
Формат : UTF-8
Идентификатор кодека : S_TEXT/UTF8
Идентификатор кодека/Информация : UTF-8 Plain Text
Продолжительность : 1 ч. 30 м.
Битрейт : 52 бит/сек
Частота кадров : 0,198 кадр/сек
Count of elements : 1068
Размер потока : 34,4 Кбайт (0%)
Заголовок : SDH
Язык : English
Default : Нет
Forced : Нет

Меню
00:00:00.000 : en:Chapter 01
00:08:04.442 : en:Chapter 02
00:15:15.915 : en:Chapter 03
00:21:33.584 : en:Chapter 04
00:27:30.482 : en:Chapter 05
00:34:41.037 : en:Chapter 06
00:43:30.983 : en:Chapter 07
00:50:20.226 : en:Chapter 08
00:55:07.304 : en:Chapter 09
01:02:08.767 : en:Chapter 10
01:10:25.638 : en:Chapter 11
01:16:21.994 : en:Chapter 12
01:21:34.014 : en:Chapter 13
01:25:59.863 : en:Chapter 14
01:32:04.519 : en:Chapter 15




Скачать Дитя тьмы: Первая жертва через торрент https://st-kp-yandex-net.translate.goog/images/film_iphone/iphone360_1446032.jpg Скачать, смотреть онлайн Дитя тьмы: Первая жертва бесплантно в хорошем качестве Описание: Сбежав из психиатрической больницы, Лина направляется в Америку, выдавая себя за Эстер, пропавшую дочь богатой семьи. В качестве ... 10 10 9
Торрент: Зарегистрирован [2022-10-10 19:44] · скачан: 51 раз
Статус: √ проверено
Размер: 11.77 GB
Как cкачать? Как скачать Дитя тьмы: Первая жертва через торрент | UTorrent

% Раздел Тема Автор DL S | L
Фильмы 2022 [DVDrip, WEB-DLRip, HDrip] (DUB, MVO) [ 1.45 GB ] Дитя тьмы: Первая жертва / Orphan: First Kill | DUB | DLRip-AVC bober100 Скачать
1 | 0
Фильмы 2022 [DVDrip, WEB-DLRip, HDrip] (DUB, MVO) [ 1.46 GB ] Дитя тьмы: Первая жертва / Orphan: First Kill | DUB | DLRip bober100 Скачать
3 | 0
Фильмы (WEB-DL 720p, 1080p) [ 2.37 GB ] Дитя тьмы: Первая жертва / Orphan: First Kill | DUB | 720p bober100 Скачать
4 | 0
T Фильмы 2022 (Звук TS, Cam, VO, DVO) [ 1.95 GB ] Дитя тьмы: Первая жертва / Orphan: First Kill | Pazl Voice | WEBRip-AVC Lithuania Скачать
3 | 0



Последний раз редактировалось: bober100 (2022-10-10 19:46), всего редактировалось 2 раз(а)

28-11-2019 20:33  


Отключить вcю реклaмy на сайте, в т.ч. и в плеере онлайн просмотра!

    Дорогой пользователь! Огромная просьба, поблагодарите релизера, оцените раздачу и оставьте свои комментарий, если Вы скачали Дитя тьмы: Первая жертва через торрент бесплатно!!
    Комментировать посты могут только пользователи прошедшие не сложную регистрацию
    Показать сообщения:    


    Дитя тьмы: Первая жертва через торрент
    Скачать бесплатно Дитя тьмы: Первая жертва
    Дитя тьмы: Первая жертва скачать торрент
    Дитя тьмы: Первая жертва смотреть онлайн
    Cкачать фильм Дитя тьмы: Первая жертва бесплатно
    Дитя тьмы: Первая жертва скачать торрент в хорошем качестве
    Дитя тьмы: Первая жертва смотреть онлайн бесплатно в хорошем качестве
    Вы не можете начинать темы
    Вы не можете отвечать на сообщения
    Вы не можете редактировать свои сообщения
    Вы не можете удалять свои сообщения
    Вы не можете голосовать в опросах
    Вы не можете прикреплять файлы к сообщениям
    Вы можете скачивать файлы
    Дитя тьмы: Первая жертва / Orphan: First Kill [2022, Ужасы, триллер, драма, криминал, детектив, BDRip 1080p] Дубляж [СиПиАй Филмз / CPI Films] смотреть онлайн, скачать торрент picoco.icu