Доктор Стрэндж

Лицензия

Добыча

Дубляж

Дом дракона

1 сезон

Тор

Дубляж

В эфире

Дубляж

Там, где раки поют

MVO

Властелин колец

1 сезон

Аренда ака

pack

Рекомендуем

30

Пиратка

ВАЖНО

ВАЖНО

Ghostwire

Пиратка

jed

RePack

nioh2

RePack

RDR2

RePack

NEED FOR SPEED™ PAYBACK

RePack

скачать торрент

Кинопоиск HD

Острые козырьки 6 сезон

6 сезон

FAR CRY 6

RePack

скачать торрент

Лицензия

скачать торрент

MVO

1

1 сезон

скачать торрент

1 сезон

скачать торрент

Лицензия

  

Тор: Любовь и гром / Thor: Love and Thunder (Тайка Вайтити) [2022, Фантастика, фэнтези, боевик, мелодрама, комедия, приключения, BDRip 1080p] Дубляж [Лицензия]

Тор: Любовь и гром через торрент pb.wtf

Раздают: 35 [ 374 KB/s ]
Размер: 10.85 GB | Добавлен: 2 мес. 2 д. назад | Торрент скачан:926 раз
Смотреть онлайн | Скачать   

07-09-2022 18:42 Тор: Любовь и гром Скачать торрент  

Тор: Любовь и гром
Thor: Love and Thunder

Год выпуска: 2022
Страна: США, Австралия
Выпущено: Marvel Studios, Fox Studios Australia, Walt Disney Pictures
Жанр: Фантастика, фэнтези, боевик, мелодрама, комедия, приключения
Продолжительность: 01:58:43
Перевод: Дублированный | Лицензия
Субтитры: Русские (Forced, 2 x Full), английские

Режиссер: Тайка Вайтити

rating

В ролях: Крис Хемсворт, Натали Портман, Крис Прэтт, Тайка Вайтити, Сэм Нилл, Брэдли Купер, Мелисса Маккарти, Кристиан Бэйл, Карен Гиллан, Мэтт Дэймон

Описание: Не успев насладиться заслуженным отдыхом, Тор встречает нового врага в лице Горра Убийцы богов, жаждущего истребить все божества во вселенной. Чтобы противостоять ему, Тор объединяется с Валькирией, Коргом и своей бывшей девушкой Джейн Фостер, ставшей Могучим Тором. Вместе они должны остановить злодея, пока не стало слишком поздно.

Качество: BDRip 1080p
Формат: MKV

Видео: MPEG-4 AVC, 1920x804, 12.0 Mbit/s, 23.976 fps
Аудио #01: 48 kHz, AC3, 5.1, 448 Kbps | Дублированный | Лицензия | RUS |
Аудио #02: 48 kHz, AC3, 5.1, 640 Kbps | Оригинал | ENG |
скриншот  скриншот  скриншот  скриншот  скриншот  скриншот  

General
Unique ID : 183881430974610346268259137670464875689 (0x8A56468178B1768160599D1E8EEB2CA9)
Complete name : E:\Video1\Thor.Love.and.Thunder.2022.Дубляж.BDRip.1080p.seleZen.mkv
Format : Matroska
Format version : Version 4
File size : 10.9 GiB
Duration : 1 h 58 min
Overall bit rate : 13.1 Mb/s
Movie name : Thor Love and Thunder 2022 from seleZen
Encoded date : UTC 2022-09-23 12:56:40
Writing application : mkvmerge v59.0.0 ('Shining Star') 64-bit
Writing library : libebml v1.4.2 + libmatroska v1.6.4

Video
ID : 1
Format : AVC
Format/Info : Advanced Video Codec
Format profile : [email protected]
Format settings : CABAC / 5 Ref Frames
Format settings, CABAC : Yes
Format settings, Reference : 5 frames
Codec ID : V_MPEG4/ISO/AVC
Duration : 1 h 58 min
Bit rate : 12.0 Mb/s
Width : 1 920 pixels
Height : 804 pixels
Display aspect ratio : 2.40:1
Frame rate mode : Constant
Frame rate : 23.976 (24000/1001) FPS
Color space : YUV
Chroma subsampling : 4:2:0
Bit depth : 8 bits
Scan type : Progressive
Bits/(Pixel*Frame) : 0.324
Stream size : 9.95 GiB (92%)
Title : psig
Writing library : x264 core 150 r2833kMod df79067
Encoding settings : cabac=1 / ref=5 / deblock=1:-3:-3 / analyse=0x3:0x133 / me=umh / subme=10 / psy=1 / fade_compensate=0.00 / psy_rd=1.00:0.00 / mixed_ref=1 / me_range=32 / chroma_me=1 / trellis=2 / 8x8dct=1 / cqm=0 / deadzone=21,11 / fast_pskip=0 / chroma_qp_offset=-2 / threads=24 / lookahead_threads=6 / sliced_threads=0 / nr=0 / decimate=0 / interlaced=0 / bluray_compat=0 / constrained_intra=0 / bframes=11 / b_pyramid=2 / b_adapt=1 / b_bias=0 / direct=3 / weightb=1 / open_gop=0 / weightp=2 / keyint=250 / keyint_min=23 / scenecut=40 / intra_refresh=0 / rc=2pass / mbtree=0 / bitrate=12000 / ratetol=1.0 / qcomp=0.60 / qpmin=0 / qpmax=69 / qpstep=4 / cplxblur=20.0 / qblur=0.5 / ip_ratio=1.40 / pb_ratio=1.30 / aq=3:0.80
Language : English
Default : Yes
Forced : No

Audio #1
ID : 2
Format : AC-3
Format/Info : Audio Coding 3
Commercial name : Dolby Digital
Codec ID : A_AC3
Duration : 1 h 58 min
Bit rate mode : Constant
Bit rate : 448 kb/s
Channel(s) : 6 channels
Channel layout : L R C LFE Ls Rs
Sampling rate : 48.0 kHz
Frame rate : 31.250 FPS (1536 SPF)
Compression mode : Lossy
Stream size : 380 MiB (3%)
Title : Дубляж
Language : Russian
Service kind : Complete Main
Default : Yes
Forced : Yes

Audio #2
ID : 3
Format : AC-3
Format/Info : Audio Coding 3
Commercial name : Dolby Digital
Codec ID : A_AC3
Duration : 1 h 58 min
Bit rate mode : Constant
Bit rate : 640 kb/s
Channel(s) : 6 channels
Channel layout : L R C LFE Ls Rs
Sampling rate : 48.0 kHz
Frame rate : 31.250 FPS (1536 SPF)
Compression mode : Lossy
Stream size : 544 MiB (5%)
Title : Original
Language : English
Service kind : Complete Main
Default : No
Forced : No

Text #1
ID : 4
Format : UTF-8
Codec ID : S_TEXT/UTF8
Codec ID/Info : UTF-8 Plain Text
Duration : 1 h 43 min
Bit rate : 1 b/s
Frame rate : 0.003 FPS
Count of elements : 18
Stream size : 787 Bytes (0%)
Title : Forced
Language : Russian
Default : Yes
Forced : Yes

Text #2
ID : 5
Format : UTF-8
Codec ID : S_TEXT/UTF8
Codec ID/Info : UTF-8 Plain Text
Duration : 1 h 57 min
Bit rate : 82 b/s
Frame rate : 0.229 FPS
Count of elements : 1616
Stream size : 71.5 KiB (0%)
Title : Full [license]
Language : Russian
Default : No
Forced : No

Text #3
ID : 6
Format : UTF-8
Codec ID : S_TEXT/UTF8
Codec ID/Info : UTF-8 Plain Text
Duration : 1 h 57 min
Bit rate : 94 b/s
Frame rate : 0.228 FPS
Count of elements : 1615
Stream size : 81.6 KiB (0%)
Title : Full [Cool Story Blog]
Language : Russian
Default : No
Forced : No

Text #4
ID : 7
Format : UTF-8
Codec ID : S_TEXT/UTF8
Codec ID/Info : UTF-8 Plain Text
Duration : 1 h 57 min
Bit rate : 56 b/s
Frame rate : 0.255 FPS
Count of elements : 1800
Stream size : 48.8 KiB (0%)
Title : Full
Language : English
Default : No
Forced : No

Text #5
ID : 8
Format : UTF-8
Codec ID : S_TEXT/UTF8
Codec ID/Info : UTF-8 Plain Text
Duration : 1 h 58 min
Bit rate : 70 b/s
Frame rate : 0.321 FPS
Count of elements : 2281
Stream size : 61.0 KiB (0%)
Title : SDH
Language : English
Default : No
Forced : No

Menu
00:00:00.000 : Chapter 01
00:06:45.155 : Chapter 02
00:10:11.319 : Chapter 03
00:14:23.780 : Chapter 04
00:18:13.426 : Chapter 05
00:20:59.508 : Chapter 06
00:21:47.806 : Chapter 07
00:27:00.994 : Chapter 08
00:28:16.194 : Chapter 09
00:29:52.249 : Chapter 10
00:31:24.508 : Chapter 11
00:35:15.113 : Chapter 12
00:38:40.443 : Chapter 13
00:45:37.443 : Chapter 14
00:53:04.223 : Chapter 15
01:06:19.392 : Chapter 16
01:14:16.911 : Chapter 17
01:24:35.821 : Chapter 18
01:28:31.181 : Chapter 19
01:30:19.998 : Chapter 20
01:34:17.652 : Chapter 21
01:38:12.678 : Chapter 22
01:44:45.529 : Chapter 23
01:48:17.616 : Chapter 24
01:50:03.430 : Chapter 25
01:51:14.710 : Chapter 26




Скачать Тор: Любовь и гром через торрент https://i120.fastpic.org/big/2022/0911/19/e0912aba4d9ed35c80ef78b1fd37b819.jpg Скачать, смотреть онлайн Тор: Любовь и гром бесплантно в хорошем качестве Описание: Не успев насладиться заслуженным отдыхом, Тор встречает нового врага в лице Горра Убийцы богов, жаждущего истребить все божества ... 9.6 10 44
Info! Золотая раздача, скачанное не засчитывается.
Торрент: Зарегистрирован [2022-09-23 13:07] · скачан: 926 раз
Статус: √ проверено
Размер: 10.85 GB
Как cкачать? Как скачать Тор: Любовь и гром через торрент | UTorrent

% Раздел Тема Автор DL S | L
Фильмы 2022 [DVDrip, WEB-DLRip, HDrip] (DUB, MVO) [ 1.46 GB ] Тор: Любовь и гром / Thor: Love and Thunder | Jaskier | DLRip bober100 Скачать
35 | 4
3D Фильмы [ 12.6 GB ] Тор: Любовь и гром в 3Д / Thor: Love and Thunder 3D | | 1080p serega768 Скачать
2 | 0
Фильмы (HD 720p, 1080p) (48-60 fps) [ 4.55 GB ] Тор: Любовь и гром / Thor: Love and Thunder | Дубляж | DLRip 720p / 60 FPS slaventi-69 Скачать
1 | 0
Фильмы [HD 720p, 1080p] (Хороший звук DUB, MVO) [ 7.06 GB ] Тор: Любовь и гром / Thor: Love and Thunder | Jaskier | 1080p bober100 Скачать
16 | 0
Фильмы 2022 [DVDrip, WEB-DLRip, HDrip] (DUB, MVO) [ 2.18 GB ] Тор: Любовь и гром / Thor: Love and Thunder | Jaskier | BDRip bober100 Скачать
12 | 0
Фильмы 2022 [DVDrip, WEB-DLRip, HDrip] (DUB, MVO) [ 1.46 GB ] Тор: Любовь и гром / Thor: Love and Thunder | Лицензия | BDRip bober100 Скачать
15 | 1
Фильмы 2022 [DVDrip, WEB-DLRip, HDrip] (DUB, MVO) [ 2.18 GB ] Тор: Любовь и гром / Thor: Love and Thunder | Лицензия | BDRip-AVC bober100 Скачать
16 | 0



Последний раз редактировалось: bober100 (2022-09-23 12:57), всего редактировалось 2 раз(а)

28-11-2019 20:33  


Отключить вcю реклaмy на сайте, в т.ч. и в плеере онлайн просмотра!

02-10-2022 05:35 Тор: Любовь и гром Скачать торрент  

слабовато!



    Дорогой пользователь! Огромная просьба, поблагодарите релизера, оцените раздачу и оставьте свои комментарий, если Вы скачали Тор: Любовь и гром через торрент бесплатно!!
    Комментировать посты могут только пользователи прошедшие не сложную регистрацию
    Показать сообщения:    


    Тор: Любовь и гром через торрент
    Скачать бесплатно Тор: Любовь и гром
    Тор: Любовь и гром скачать торрент
    Тор: Любовь и гром смотреть онлайн
    Cкачать фильм Тор: Любовь и гром бесплатно
    Тор: Любовь и гром скачать торрент в хорошем качестве
    Тор: Любовь и гром смотреть онлайн бесплатно в хорошем качестве
    Вы не можете начинать темы
    Вы не можете отвечать на сообщения
    Вы не можете редактировать свои сообщения
    Вы не можете удалять свои сообщения
    Вы не можете голосовать в опросах
    Вы не можете прикреплять файлы к сообщениям
    Вы можете скачивать файлы
    Тор: Любовь и гром / Thor: Love and Thunder [2022, Фантастика, фэнтези, боевик, мелодрама, комедия, приключения, BDRip 1080p] Дубляж [Лицензия] смотреть онлайн, скачать торрент picoco.icu