Доктор Стрэндж

Лицензия

Добыча

Дубляж

Уэнсдэй

1 сезон

Тор

Дубляж

В эфире

Дубляж

Там, где раки поют

MVO

Властелин колец

1 сезон

Deluxe

pack

Рекомендуем

30

Пиратка

ВАЖНО

ВАЖНО

Ghostwire

Пиратка

jed

RePack

nioh2

RePack

RDR2

RePack

NEED FOR SPEED™ PAYBACK

RePack

скачать торрент

Кинопоиск HD

Острые козырьки 6 сезон

6 сезон

FAR CRY 6

RePack

скачать торрент

Лицензия

скачать торрент

MVO

1

1 сезон

скачать торрент

1 сезон

скачать торрент

Лицензия

  

Художник / Сезон: 1 / Серии: 1-16 из 16 (Тимур Алпатов) [2022, Исторический, детектив, драма, WEBRip 1080p]

Художник через торрент pb.wtf

Раздают: 7 [ 275 KB/s ] Качают: 2 [ 0 KB/s ]
Размер: 26.28 GB | Добавлен: 1 мес. 10 д. назад | Торрент скачан:138 раз
Смотреть онлайн | Скачать   

07-09-2022 21:58 Художник Скачать торрент  

Художник
Год выпуска: 2022
Страна: Россия
Жанр: Исторический, детектив, драма
Продолжительность: ~ 00:52:00 серия
Субтитры: отсутствуют

Режиссер: Тимур Алпатов



В ролях: Андрей Смоляков, Александр Горбатов (II), Виктор Добронравов, Дарья Урсуляк, Марина Александрова, Андрей Мерзликин, Александр Устюгов, Сергей Газаров, Кирилл Зайцев (II), Светлана Колпакова, Агриппина Стеклова, Филипп Ершов, Мария Крылова (II), Николай Кисличенко, Артём Алексеев (II), Евгений Харитонов (II), Сергей Черданцев, Елена Нестерова, Сергей Фролов, Карэн Бадалов, Антонина Комиссарова, Александр Воробьёв (IV), Юрий Маслак, Иван Бровин, Сергей Гурьев, Данил Тябин, Ксения Иванова, Илья Сланевский, Анатолий Лобоцкий

Описание: Сюжет разворачивается в марте 1944 года. Кажется, что окончательный разгром фашистской Германии совсем близок. Однако радость грядущей победы омрачает серия дерзких и жестоких убийств. Главаря банды поймать не удаётся, а состав налётчиков всякий раз меняется. Но на месте преступлений неизменно находят портреты убитых. За эти рисунки банду прозвали «Мёртвой головой», а её главаря − Художником. Расследованием занимается опытный майор Ефимов и капитан Сазонов. Когда к работе над запутанным делом подключается сотрудник НКВД, каждый герой сериала оказывается под подозрением — и небезосновательно…

Качество: WEBRip 1080p
Формат: MKV

Видео: MPEG-4 AVC, 1920x1072, ~ 4500 Кбит/с, 0.087 bit/pixel, 25 Кадр/с
Аудио: 48.0 kHz, AC3 Dolby Digital, 2/0 (L,R) ch, ~ 192 kbps

Общее
Уникальный идентификатор : 306770265625355388712459727119946762525 (0xE6C9CDD6FA4C7AD8D5DA49D921AA491D)
Полное имя : D:\Hudozhnik.S01.2022.WEBRip.1080p\Hudozhnik.S01.E01.2022.WEBRip.1080p.mkv
Формат : Matroska
Версия формата : Version 4
Размер файла : 1,68 Гбайт
Продолжительность : 51 м. 26 с.
Режим общего битрейта : Переменный
Общий поток : 4 677 Кбит/сек
Название фильма : Hudozhnik.S01.E01.2022.WEBRip.1080p
Дата кодирования : UTC 2022-09-08 01:02:35
Программа кодирования : mkvmerge v68.0.0 ('The Curtain') 64-bit
Библиотека кодирования : libebml v1.4.2 + libmatroska v1.6.4
Attachments : poster.jpg

Видео
Идентификатор : 1
Формат : AVC
Формат/Информация : Advanced Video Codec
Профиль формата : [email protected]
Настройки формата : CABAC / 2 Ref Frames
Параметр CABAC формата : Да
Параметр RefFrames формата : 2 кадра
Идентификатор кодека : V_MPEG4/ISO/AVC
Продолжительность : 51 м. 25 с.
Вид битрейта : Переменный
Битрейт : 4 500 Кбит/сек
Ширина : 1 920 пикселей
Высота : 1 072 пикселя
Соотношение сторон : 16:9
Режим частоты кадров : Постоянный
Частота кадров : 25,000 кадров/сек
Цветовое пространство : YUV
Субдискретизация насыщенности : 4:2:0
Битовая глубина : 8 бит
Тип развёртки : Прогрессивная
Бит/(Пиксели*Кадры) : 0.087
Размер потока : 1,61 Гбайт (96%)
Default : Да
Forced : Нет
Цветовой диапазон : Limited
Основные цвета : BT.709
Характеристики трансфера : BT.709
Коэффициенты матрицы : BT.709

Аудио
Идентификатор : 2
Формат : AC-3
Формат/Информация : Audio Coding 3
Коммерческое название : Dolby Digital
Идентификатор кодека : A_AC3
Продолжительность : 51 м. 25 с.
Вид битрейта : Постоянный
Битрейт : 192 Кбит/сек
Каналы : 2 канала
Channel layout : L R
Частота : 48,0 КГц
Частота кадров : 31,250 кадров/сек (1536 SPF)
Метод сжатия : С потерями
Задержка видео : -120 мс.
Размер потока : 70,6 Мбайт (4%)
Service kind : Complete Main
Default : Да
Forced : Нет

Когда раздача ведётся путём добавления новых серий, при каждом добавлении создётся новый торрент. Чтобы начать докачку новой серии, пользователям необходимо сделать следующее:
(1) остановить скачивание,
(2) удалить старый торрент у себя из клиента (старые серии удалять не надо),
(3) скачать новый торрент и запустить его у себя в клиенте вместо старого, при этом указать клиенту путь в старую папку, куда и должно происходить скачивание новых серий.
Ваш клиент при этом должен произвести хеширование (проверку) старой папки (если не производит сам - помогите ему сделать это), и будет докачивать только те серии, которых у вас ещё нет. Старые серии при этом не удаляются, а продолжают раздаваться!
Eсли вы уже удалили старые серии, то предотвратить повторную закачку старых серий можно, отжав галочку в соответсвующих местах при запуске нового торрента. По возможности, желательно не удалять старые серии как можно дольше, чтобы релизёр не столько продолжал раздавать старые серии, а смог сконцентрироваться на новых.



Скачать Художник через торрент https://i120.fastpic.org/big/2022/0908/6c/aecc4945a724059ad40588ccbf35fa6c.jpg Скачать, смотреть онлайн Художник бесплантно в хорошем качестве Описание: Сюжет разворачивается в марте 1944 года. Кажется, что окончательный разгром фашистской Германии совсем близок. Однако радость ... 8.3 10 26
Торрент: Зарегистрирован [2022-10-27 04:03] · скачан: 138 раз
Статус: √ проверено
Размер: 26.28 GB
Как cкачать? Как скачать Художник через торрент | UTorrent

% Раздел Тема Автор DL S | L
Наши сериалы [ 10.08 GB ] Художник / Сезон: 1 / Серии: 1-16 из 16 | | WEBRip-AVC bober100 Скачать
11 | 1
Наши сериалы [ 10.75 GB ] Художник / Сезон: 1 / Серии: 1-16 из 16 | | WEBRip bober100 Скачать
15 | 1



Последний раз редактировалось: bober100 (2022-10-27 04:03), всего редактировалось 15 раз(а)

28-11-2019 20:33  


Отключить вcю реклaмy на сайте, в т.ч. и в плеере онлайн просмотра!

08-09-2022 18:38 Художник Скачать торрент  

жил-был художник один..домик имел и холсты..но он..любил ту что любила цветы...1 миллион ровно..



27-10-2022 08:52 Художник Скачать торрент  

А я знал кто такой Вагнер.



    Дорогой пользователь! Огромная просьба, поблагодарите релизера, оцените раздачу и оставьте свои комментарий, если Вы скачали Художник через торрент бесплатно!!
    Комментировать посты могут только пользователи прошедшие не сложную регистрацию
    Показать сообщения:    


    Художник через торрент
    Скачать бесплатно Художник
    Художник скачать торрент
    Художник смотреть онлайн
    Cкачать фильм Художник бесплатно
    Художник скачать торрент в хорошем качестве
    Художник смотреть онлайн бесплатно в хорошем качестве
    Вы не можете начинать темы
    Вы не можете отвечать на сообщения
    Вы не можете редактировать свои сообщения
    Вы не можете удалять свои сообщения
    Вы не можете голосовать в опросах
    Вы не можете прикреплять файлы к сообщениям
    Вы можете скачивать файлы
    Художник / Сезон: 1 / Серии: 1-16 из 16 [2022, Исторический, детектив, драма, WEBRip 1080p] смотреть онлайн, скачать торрент picoco.icu