Доктор Стрэндж

Лицензия

Добыча

Дубляж

Уэнсдэй

1 сезон

Тор

Дубляж

В эфире

Дубляж

Там, где раки поют

MVO

Властелин колец

1 сезон

Deluxe

pack

Рекомендуем

30

Пиратка

ВАЖНО

ВАЖНО

Ghostwire

Пиратка

jed

RePack

nioh2

RePack

RDR2

RePack

NEED FOR SPEED™ PAYBACK

RePack

скачать торрент

Кинопоиск HD

Острые козырьки 6 сезон

6 сезон

FAR CRY 6

RePack

скачать торрент

Лицензия

скачать торрент

MVO

1

1 сезон

скачать торрент

1 сезон

скачать торрент

Лицензия

  

Что делать женщине, если у неё два любовника, а выбрать нужно одного / Сезон: 1 / Серии: 1-8 из 8 (Алексей Кузьмин-Тарасов (II) [2022, Комедия, WEB-DLRip]

Что делать женщине, если у неё два любовника, а выбрать нужно одного через торрент pb.wtf

Раздают: 2 [ 0 KB/s ]
Размер: 2.1 GB | Добавлен: 2 мес. 6 д. назад | Торрент скачан:62 раза
Смотреть онлайн | Скачать   

08-09-2022 02:53 Что делать женщине, если у неё два любовника, а выбрать нужно одного Скачать торрент  

Что делать женщине, если у неё два любовника, а выбрать нужно одного
Год выпуска: 2022
Страна: Россия
Выпущено: Кинокомпания «Студия Видеопрокат» для Okko
Жанр: Комедия
Продолжительность: ~ 00:15:00
Субтитры: отсутствуют

Режиссер: Алексей Кузьмин-Тарасов (II)



В ролях: Елена Лядова, Агриппина Стеклова, Гоша Куценко, Антон Филипенко, Макар Хлебников, Виталий Хаев, Александр Робак

Описание: Анна успешный адвокат, которая не стесняясь говорит своей давней подруге Ларисе, что хочет выбрать «мужа на три месяца», так как у нее сложный проект и нужен громоотвод и постоянный секс. В финал ее отбора вышли два идеальных варианта: молодой технократ-педант и возрастной бизнесмен-гуляка. Оба успешны, оба интересны, и оба ею увлечены. Однако, неожиданно Анна узнаёт, что жизнь ее заиграет новыми и не факт, что яркими красками. Она станет бабушкой. Сын-оболтус возвращается из Англии с невесткой-пакистанкой. А значит теперь Анна выбирает не «мужа на три месяца», а дедушку своей внучке.

Качество: WEB-DLRip
Формат: AVI

Видео: XviD, 720x304, ~ 1650 Кбит/с, 0.301 bit/pixel, 25 Кадр/с
Аудио 1: AC3, 48,0 КГц, 6 ch, 384 Кбит/с | С цензурой
Аудио 2: AC3, 48,0 КГц, 6 ch, 384 Кбит/с | Без цензуры (18+)
скриншот  скриншот  скриншот  скриншот  скриншот  скриншот  

Общее
Полное имя : D:\Chto.delat.zhenschine.esli.u.nee.dva.ljubovnika.a.vybrat.nuzhno.odnogo.S01.WEB-DLRip.25Kuzmich\Chto.delat.zhenschine.esli.u.nee.dva.ljubovnika.a.vybrat.nuzhno.odnogo.s01e01.WEB-DLRip.25Kuzmich.avi
Формат : AVI
Формат/Информация : Audio Video Interleave
Размер файла : 213 Мбайт
Продолжительность : 12 м. 15 с.
Общий поток : 2 432 Кбит/сек
Программа кодирования : VirtualDubMod 1.5.10.3 (build 2550/release)
Библиотека кодирования : VirtualDubMod build 2550/release

Видео
Идентификатор : 0
Формат : MPEG-4 Visual
Профиль формата : Advanced [email protected]
Настройки формата : BVOP1
Параметр BVOP формата : 1
Параметр QPel формата : Нет
Параметр GMC формата : Без точки перехода
Параметр матрицы формата : Default (MPEG)
Идентификатор кодека : XVID
Идентификатор кодека/Подсказка : XviD
Продолжительность : 12 м. 15 с.
Битрейт : 1 650 Кбит/сек
Ширина : 720 пикселей
Высота : 304 пикселя
Соотношение сторон : 2,35:1
Частота кадров : 25,000 кадров/сек
Цветовое пространство : YUV
Субдискретизация насыщенности : 4:2:0
Битовая глубина : 8 бит
Тип развёртки : Прогрессивная
Метод сжатия : С потерями
Бит/(Пиксели*Кадры) : 0.301
Размер потока : 145 Мбайт (68%)
Библиотека кодирования : XviD 73

Аудио #1
Идентификатор : 1
Формат : AC-3
Формат/Информация : Audio Coding 3
Коммерческое название : Dolby Digital
Идентификатор кодека : 2000
Продолжительность : 12 м. 15 с.
Вид битрейта : Постоянный
Битрейт : 384 Кбит/сек
Каналы : 6 каналов
Channel layout : L R C LFE Ls Rs
Частота : 48,0 КГц
Частота кадров : 31,250 кадров/сек (1536 SPF)
Метод сжатия : С потерями
Размер потока : 33,6 Мбайт (16%)
Выравнивание : Разделение по промежуткам
Продолжительность промежутка : 40 мс. (1,00 видеокадр)
Время предзагрузки промежутка : 500 мс.
Service kind : Complete Main

Аудио #2
Идентификатор : 2
Формат : AC-3
Формат/Информация : Audio Coding 3
Коммерческое название : Dolby Digital
Идентификатор кодека : 2000
Продолжительность : 12 м. 15 с.
Вид битрейта : Постоянный
Битрейт : 384 Кбит/сек
Каналы : 6 каналов
Channel layout : L R C LFE Ls Rs
Частота : 48,0 КГц
Частота кадров : 31,250 кадров/сек (1536 SPF)
Метод сжатия : С потерями
Размер потока : 33,6 Мбайт (16%)
Выравнивание : Разделение по промежуткам
Продолжительность промежутка : 40 мс. (1,00 видеокадр)
Время предзагрузки промежутка : 500 мс.
Service kind : Complete Main

Когда раздача ведётся путём добавления новых серий, при каждом добавлении создётся новый торрент. Чтобы начать докачку новой серии, пользователям необходимо сделать следующее:
(1) остановить скачивание,
(2) удалить старый торрент у себя из клиента (старые серии удалять не надо),
(3) скачать новый торрент и запустить его у себя в клиенте вместо старого, при этом указать клиенту путь в старую папку, куда и должно происходить скачивание новых серий.
Ваш клиент при этом должен произвести хеширование (проверку) старой папки (если не производит сам - помогите ему сделать это), и будет докачивать только те серии, которых у вас ещё нет. Старые серии при этом не удаляются, а продолжают раздаваться!
Eсли вы уже удалили старые серии, то предотвратить повторную закачку старых серий можно, отжав галочку в соответсвующих местах при запуске нового торрента. По возможности, желательно не удалять старые серии как можно дольше, чтобы релизёр не столько продолжал раздавать старые серии, а смог сконцентрироваться на новых.



Скачать Что делать женщине, если у неё два любовника, а выбрать нужно одного через торрент https://i120.fastpic.org/big/2022/0908/63/985e8a046b86a82a32527e3b39030f63.jpg Скачать, смотреть онлайн Что делать женщине, если у неё два любовника, а выбрать нужно одного бесплантно в хорошем качестве Описание: Анна успешный адвокат, которая не стесняясь говорит своей давней подруге Ларисе, что хочет выбрать «мужа на три месяца», так как ... 8.2 10 10
Торрент: Зарегистрирован [2022-09-30 03:05] · скачан: 62 раз
Статус: √ проверено
Размер: 2.1 GB
Как cкачать? Как скачать Что делать женщине, если у неё два любовника, а выбрать нужно одного через торрент | UTorrent

% Раздел Тема Автор DL S | L
Наши сериалы [ 1.9 GB ] Что делать женщине, если у неё два любовника, а выбрать нужно одного / Сезон: 1 / Серии: 1-8 из 8 | | DLRip-AVC bober100 Скачать
8 | 0
Наши сериалы [ 4.68 GB ] Что делать женщине, если у неё два любовника, а выбрать нужно одного / Сезон: 1 / Серии: 1-8 из 8 | | 1080p bober100 Скачать
3 | 0

28-11-2019 20:33  


Отключить вcю реклaмy на сайте, в т.ч. и в плеере онлайн просмотра!

    Дорогой пользователь! Огромная просьба, поблагодарите релизера, оцените раздачу и оставьте свои комментарий, если Вы скачали Что делать женщине, если у неё два любовника, а выбрать нужно одного через торрент бесплатно!!
    Комментировать посты могут только пользователи прошедшие не сложную регистрацию
    Показать сообщения:    


    Что делать женщине, если у неё два любовника, а выбрать нужно одного через торрент
    Скачать бесплатно Что делать женщине, если у неё два любовника, а выбрать нужно одного
    Что делать женщине, если у неё два любовника, а выбрать нужно одного скачать торрент
    Что делать женщине, если у неё два любовника, а выбрать нужно одного смотреть онлайн
    Cкачать фильм Что делать женщине, если у неё два любовника, а выбрать нужно одного бесплатно
    Что делать женщине, если у неё два любовника, а выбрать нужно одного скачать торрент в хорошем качестве
    Что делать женщине, если у неё два любовника, а выбрать нужно одного смотреть онлайн бесплатно в хорошем качестве
    Вы не можете начинать темы
    Вы не можете отвечать на сообщения
    Вы не можете редактировать свои сообщения
    Вы не можете удалять свои сообщения
    Вы не можете голосовать в опросах
    Вы не можете прикреплять файлы к сообщениям
    Вы можете скачивать файлы
    Что делать женщине, если у неё два любовника, а выбрать нужно одного / Сезон: 1 / Серии: 1-8 из 8 [2022, Комедия, WEB-DLRip] смотреть онлайн, скачать торрент picoco.icu