Доктор Стрэндж

Лицензия

Добыча

Дубляж

Уэнсдэй

1 сезон

Тор

Дубляж

В эфире

Дубляж

Там, где раки поют

MVO

Властелин колец

1 сезон

Deluxe

pack

Рекомендуем

30

Пиратка

ВАЖНО

ВАЖНО

Ghostwire

Пиратка

jed

RePack

nioh2

RePack

RDR2

RePack

NEED FOR SPEED™ PAYBACK

RePack

скачать торрент

Кинопоиск HD

Острые козырьки 6 сезон

6 сезон

FAR CRY 6

RePack

скачать торрент

Лицензия

скачать торрент

MVO

1

1 сезон

скачать торрент

1 сезон

скачать торрент

Лицензия

  

Что делать женщине, если у неё два любовника, а выбрать нужно одного / Сезон: 1 / Серии: 1-8 из 8 (Алексей Кузьмин-Тарасов (II) [2022, Комедия, WEB-DL 1080p]

Что делать женщине, если у неё два любовника, а выбрать нужно одного через торрент pb.wtf

Раздают: 1 [ 0 KB/s ]
Размер: 4.68 GB | Добавлен: 2 мес. 6 д. назад | Торрент скачан:179 раз
Смотреть онлайн | Скачать   

08-09-2022 02:57 Что делать женщине, если у неё два любовника, а выбрать нужно одного Скачать торрент  

Что делать женщине, если у неё два любовника, а выбрать нужно одного
Год выпуска: 2022
Страна: Россия
Выпущено: Кинокомпания «Студия Видеопрокат» для Okko
Жанр: Комедия
Продолжительность: ~ 00:15:00
Субтитры: отсутствуют

Режиссер: Алексей Кузьмин-Тарасов (II)

rating

В ролях: Елена Лядова, Агриппина Стеклова, Гоша Куценко, Антон Филипенко, Макар Хлебников, Виталий Хаев, Александр Робак

Описание: Анна успешный адвокат, которая не стесняясь говорит своей давней подруге Ларисе, что хочет выбрать «мужа на три месяца», так как у нее сложный проект и нужен громоотвод и постоянный секс. В финал ее отбора вышли два идеальных варианта: молодой технократ-педант и возрастной бизнесмен-гуляка. Оба успешны, оба интересны, и оба ею увлечены. Однако, неожиданно Анна узнаёт, что жизнь ее заиграет новыми и не факт, что яркими красками. Она станет бабушкой. Сын-оболтус возвращается из Англии с невесткой-пакистанкой. А значит теперь Анна выбирает не «мужа на три месяца», а дедушку своей внучке.

Качество: WEB-DL 1080p
Формат: MKV

Видео: MPEG-4 AVC, 1920x816, ~ 5000 Кбит/с, 0.127 bit/pixel, 25 Кадр/с
Аудио 1: AC3, 48,0 КГц, 6 ch, 384 Кбит/с | С цензурой
Аудио 2: AC3, 48,0 КГц, 6 ch, 384 Кбит/с | Без цензуры (18+)

Общее
Уникальный идентификатор : 288337565596977582292596856157418765868 (0xD8EBCB9018CCB721426D6F1F2BC33E2C)
Полное имя : D:\Chto.delat.zhenschine.esli.u.nee.dva.ljubovnika.a.vybrat.nuzhno.odnogo.S01.WEB-DL.1080.25Kuzmich\Chto.delat.zhenschine.esli.u.nee.dva.ljubovnika.a.vybrat.nuzhno.odnogo.s01.e01.WEB-DL.1080.25Kuzmich.mkv
Формат : Matroska
Версия формата : Version 4
Размер файла : 505 Мбайт
Продолжительность : 12 м. 15 с.
Режим общего битрейта : Переменный
Общий поток : 5 758 Кбит/сек
Дата кодирования : UTC 2022-09-08 01:22:44
Программа кодирования : mkvmerge v51.0.0 ('I Wish') 64-bit
Библиотека кодирования : libebml v1.4.0 + libmatroska v1.6.2

Видео
Идентификатор : 1
Формат : AVC
Формат/Информация : Advanced Video Codec
Профиль формата : [email protected]
Настройки формата : CABAC / 3 Ref Frames
Параметр CABAC формата : Да
Параметр RefFrames формата : 3 кадра
Идентификатор кодека : V_MPEG4/ISO/AVC
Продолжительность : 12 м. 15 с.
Вид битрейта : Переменный
Битрейт : 4 988 Кбит/сек
Максимальный битрейт : 40,0 Мбит/сек
Ширина : 1 920 пикселей
Высота : 816 пикселей
Соотношение сторон : 2,35:1
Режим частоты кадров : Постоянный
Частота кадров : 25,000 кадров/сек
Цветовое пространство : YUV
Субдискретизация насыщенности : 4:2:0
Битовая глубина : 8 бит
Тип развёртки : Прогрессивная
Бит/(Пиксели*Кадры) : 0.127
Размер потока : 437 Мбайт (87%)
Default : Да
Forced : Нет
Цветовой диапазон : Limited
Основные цвета : BT.709
Характеристики трансфера : BT.709
Коэффициенты матрицы : BT.709

Аудио #1
Идентификатор : 2
Формат : AC-3
Формат/Информация : Audio Coding 3
Коммерческое название : Dolby Digital
Идентификатор кодека : A_AC3
Продолжительность : 12 м. 15 с.
Вид битрейта : Постоянный
Битрейт : 384 Кбит/сек
Каналы : 6 каналов
Channel layout : L R C LFE Ls Rs
Частота : 48,0 КГц
Частота кадров : 31,250 кадров/сек (1536 SPF)
Метод сжатия : С потерями
Размер потока : 33,7 Мбайт (7%)
Язык : Russian
Service kind : Complete Main
Default : Да
Forced : Нет

Аудио #2
Идентификатор : 3
Формат : AC-3
Формат/Информация : Audio Coding 3
Коммерческое название : Dolby Digital
Идентификатор кодека : A_AC3
Продолжительность : 12 м. 15 с.
Вид битрейта : Постоянный
Битрейт : 384 Кбит/сек
Каналы : 6 каналов
Channel layout : L R C LFE Ls Rs
Частота : 48,0 КГц
Частота кадров : 31,250 кадров/сек (1536 SPF)
Метод сжатия : С потерями
Размер потока : 33,7 Мбайт (7%)
Язык : Russian
Service kind : Complete Main
Default : Нет
Forced : Нет

Когда раздача ведётся путём добавления новых серий, при каждом добавлении создётся новый торрент. Чтобы начать докачку новой серии, пользователям необходимо сделать следующее:
(1) остановить скачивание,
(2) удалить старый торрент у себя из клиента (старые серии удалять не надо),
(3) скачать новый торрент и запустить его у себя в клиенте вместо старого, при этом указать клиенту путь в старую папку, куда и должно происходить скачивание новых серий.
Ваш клиент при этом должен произвести хеширование (проверку) старой папки (если не производит сам - помогите ему сделать это), и будет докачивать только те серии, которых у вас ещё нет. Старые серии при этом не удаляются, а продолжают раздаваться!
Eсли вы уже удалили старые серии, то предотвратить повторную закачку старых серий можно, отжав галочку в соответсвующих местах при запуске нового торрента. По возможности, желательно не удалять старые серии как можно дольше, чтобы релизёр не столько продолжал раздавать старые серии, а смог сконцентрироваться на новых.



Скачать Что делать женщине, если у неё два любовника, а выбрать нужно одного через торрент https://i120.fastpic.org/big/2022/0908/63/985e8a046b86a82a32527e3b39030f63.jpg Скачать, смотреть онлайн Что делать женщине, если у неё два любовника, а выбрать нужно одного бесплантно в хорошем качестве Описание: Анна успешный адвокат, которая не стесняясь говорит своей давней подруге Ларисе, что хочет выбрать «мужа на три месяца», так как ... 8.8 10 15
Торрент: Зарегистрирован [2022-09-30 03:05] · скачан: 179 раз
Статус: √ проверено
Размер: 4.68 GB
Как cкачать? Как скачать Что делать женщине, если у неё два любовника, а выбрать нужно одного через торрент | UTorrent

% Раздел Тема Автор DL S | L
Наши сериалы [ 1.9 GB ] Что делать женщине, если у неё два любовника, а выбрать нужно одного / Сезон: 1 / Серии: 1-8 из 8 | | DLRip-AVC bober100 Скачать
9 | 0
Наши сериалы [ 2.1 GB ] Что делать женщине, если у неё два любовника, а выбрать нужно одного / Сезон: 1 / Серии: 1-8 из 8 | | DLRip bober100 Скачать
3 | 0



Последний раз редактировалось: bober100 (2022-09-30 03:05), всего редактировалось 4 раз(а)

28-11-2019 20:33  


Отключить вcю реклaмy на сайте, в т.ч. и в плеере онлайн просмотра!

08-09-2022 05:09 Что делать женщине, если у неё два любовника, а выбрать нужно одного Скачать торрент  

что делать бедняжке? я думаю, письку зашить суровыми нитками и идти мужу-кормильцу хер развлекать



08-09-2022 10:42 Что делать женщине, если у неё два любовника, а выбрать нужно одного Скачать торрент  

фемино-фашисткое дерьмо...ну и удачи пездам, которые верят, что так в жизни может быть и будут хотеть так жить, которые потом будут доживать свою жизнь в одиночестве



    Дорогой пользователь! Огромная просьба, поблагодарите релизера, оцените раздачу и оставьте свои комментарий, если Вы скачали Что делать женщине, если у неё два любовника, а выбрать нужно одного через торрент бесплатно!!
    Комментировать посты могут только пользователи прошедшие не сложную регистрацию
    Показать сообщения:    


    Что делать женщине, если у неё два любовника, а выбрать нужно одного через торрент
    Скачать бесплатно Что делать женщине, если у неё два любовника, а выбрать нужно одного
    Что делать женщине, если у неё два любовника, а выбрать нужно одного скачать торрент
    Что делать женщине, если у неё два любовника, а выбрать нужно одного смотреть онлайн
    Cкачать фильм Что делать женщине, если у неё два любовника, а выбрать нужно одного бесплатно
    Что делать женщине, если у неё два любовника, а выбрать нужно одного скачать торрент в хорошем качестве
    Что делать женщине, если у неё два любовника, а выбрать нужно одного смотреть онлайн бесплатно в хорошем качестве
    Вы не можете начинать темы
    Вы не можете отвечать на сообщения
    Вы не можете редактировать свои сообщения
    Вы не можете удалять свои сообщения
    Вы не можете голосовать в опросах
    Вы не можете прикреплять файлы к сообщениям
    Вы можете скачивать файлы
    Что делать женщине, если у неё два любовника, а выбрать нужно одного / Сезон: 1 / Серии: 1-8 из 8 [2022, Комедия, WEB-DL 1080p] смотреть онлайн, скачать торрент picoco.icu