Доктор Стрэндж

Лицензия

Добыча

Дубляж

Дом дракона

1 сезон

Тор

Дубляж

В эфире

Дубляж

Там, где раки поют

MVO

Властелин колец

1 сезон

Ultimate

pack

Рекомендуем

30

Пиратка

ВАЖНО

ВАЖНО

Ghostwire

Пиратка

jed

RePack

nioh2

RePack

RDR2

RePack

NEED FOR SPEED™ PAYBACK

RePack

скачать торрент

Кинопоиск HD

Острые козырьки 6 сезон

6 сезон

FAR CRY 6

RePack

скачать торрент

Лицензия

скачать торрент

MVO

1

1 сезон

скачать торрент

1 сезон

скачать торрент

Лицензия

  

Нахимовцы (Олег Штром) [2021, Приключения, детский, WEB-DL 1080p]

Нахимовцы через торрент pb.wtf

Размер: 3.26 GB | Добавлен: 2 мес. 17 д. назад | Торрент скачан:40 раз
Смотреть онлайн | Скачать   

08-09-2022 16:54 Нахимовцы Скачать торрент  

Нахимовцы
Год выпуска: 2021
Студия: Кинокомпания "Каро Продакшн", студия "Кинопроба"
Страна: Россия
Жанр: Приключения, детский
Продолжительность: 01:26:00
Перевод: Не требуется
Субтитры: отсутствуют

Режиссер: Олег Штром

rating

В ролях: Андрей Мерзликин, Сергей Гармаш, Ольга Павловец, Анна Алексахина, Даниил Ходунов, Никита Ходунов, Константин Раскатов, Сергей Маркеев, Иван Батарев, Иван Якименко, Анна Дюкова, Александр Тютрюмов

Описание: История о братьях-близнецах из семьи потомственных военных моряков. Их отец — бравый морской капитан — мечтает, чтобы сыновья окончили легендарное Нахимовское училище и продолжили семейную династию на флоте. Однако сами ребята совсем не думают о морской службе. Как и большинство современных подростков, они хотят лишь веселья и легких денег. Эти желания приводят героев в банду местного «предводителя» молодежи, выбраться из которой без поддержки родного училища им будет крайне сложно.

Качество: WEB-DL 1080p
Формат: MKV

Видео: MPEG-4 AVC, ~ 5000 Кбит/с, 1920x804, 24 кадр/с
Аудио: 48 kHz, AC3 Dolby Digital, 3/2 (L, C, R, l, r) + LFE ch, ~384 Kbps

General
Unique ID : 6877282174906828911760334168267208026 (0x52C8430ABDB72FBAE168F407E84B55A)
Complete name : F:\Нахимовцы.(2021).WEB-DLRip.1080р.by.Серый1779.Files-x.mkv
Format : Matroska
Format version : Version 4 / Version 2
File size : 3.26 GiB
Duration : 1 h 26 min
Overall bit rate : 5 371 kb/s
Encoded date : UTC 2022-09-08 09:17:05
Writing application : mkvmerge v53.0.0 ('Fool's Gold') 64-bit
Writing library : libebml v1.4.1 + libmatroska v1.6.2

Video
ID : 1
Format : AVC
Format/Info : Advanced Video Codec
Format profile : [email protected]
Format settings : CABAC / 3 Ref Frames
Format settings, CABAC : Yes
Format settings, RefFrames : 3 frames
Codec ID : V_MPEG4/ISO/AVC
Duration : 1 h 26 min
Bit rate : 5 000 kb/s
Width : 1 920 pixels
Height : 804 pixels
Display aspect ratio : 2.40:1
Frame rate mode : Constant
Frame rate : 24.000 FPS
Color space : YUV
Chroma subsampling : 4:2:0
Bit depth : 8 bits
Scan type : Progressive
Bits/(Pixel*Frame) : 0.135
Stream size : 3.02 GiB (93%)
Writing library : x264 core 161 r3048 b86ae3c
Encoding settings : cabac=1 / ref=4 / deblock=1:1:1 / analyse=0x3:0x133 / me=umh / subme=9 / psy=1 / psy_rd=0.40:1.00 / mixed_ref=1 / me_range=24 / chroma_me=1 / trellis=0 / 8x8dct=1 / cqm=0 / deadzone=21, 11 / fast_pskip=1 / chroma_qp_offset=-2 / threads=25 / lookahead_threads=2 / sliced_threads=0 / nr=0 / decimate=1 / interlaced=0 / bluray_compat=0 / constrained_intra=0 / bframes=8 / b_pyramid=1 / b_adapt=1 / b_bias=0 / direct=3 / weightb=1 / open_gop=0 / weightp=2 / keyint=72 / keyint_min=37 / scenecut=0 / intra_refresh=0 / rc_lookahead=30 / rc=2pass / mbtree=1 / bitrate=5000 / ratetol=1.0 / qcomp=0.80 / qpmin=1 / qpmax=69 / qpstep=4 / cplxblur=20.0 / qblur=0.5 / vbv_maxrate=7500 / vbv_bufsize=10000 / nal_hrd=none / filler=0 / ip_ratio=1.40 / aq=1:1.00
Language : Russian
Default : Yes
Forced : No
Color range : Limited
Color primaries : BT.709
Transfer characteristics : BT.709
Matrix coefficients : BT.709

Audio
ID : 2
Format : AC-3
Format/Info : Audio Coding 3
Format settings, Endianness : Big
Codec ID : A_AC3
Duration : 1 h 26 min
Bit rate mode : Constant
Bit rate : 384 kb/s
Channel(s) : 6 channels
Channel positions : Front: L C R, Side: L R, LFE
Sampling rate : 48.0 kHz
Frame rate : 31.250 FPS (1536 SPF)
Bit depth : 16 bits
Compression mode : Lossy
Stream size : 238 MiB (7%)
Language : Russian
Service kind : Complete Main
Default : Yes
Forced : No




Скачать Нахимовцы через торрент https://i120.fastpic.org/big/2022/0908/b0/02204157224ff0dc46e386a40e2931b0.jpg Скачать, смотреть онлайн Нахимовцы бесплантно в хорошем качестве Описание: История о братьях-близнецах из семьи потомственных военных моряков. Их отец — бравый морской капитан — мечтает, чтобы сыновья ... 10 10 3
Торрент: Зарегистрирован [2022-09-08 16:54] · скачан: 40 раз
Статус: √ проверено
Размер: 3.26 GB
Как cкачать? Как скачать Нахимовцы через торрент | UTorrent

% Раздел Тема Автор DL S | L
Детские отечественные фильмы [ 1.46 GB ] Нахимовцы | | DLRip bober100 Скачать
1 | 0

28-11-2019 20:33  


Отключить вcю реклaмy на сайте, в т.ч. и в плеере онлайн просмотра!

    Дорогой пользователь! Огромная просьба, поблагодарите релизера, оцените раздачу и оставьте свои комментарий, если Вы скачали Нахимовцы через торрент бесплатно!!
    Комментировать посты могут только пользователи прошедшие не сложную регистрацию
    Показать сообщения:    


    Нахимовцы через торрент
    Скачать бесплатно Нахимовцы
    Нахимовцы скачать торрент
    Нахимовцы смотреть онлайн
    Cкачать фильм Нахимовцы бесплатно
    Нахимовцы скачать торрент в хорошем качестве
    Нахимовцы смотреть онлайн бесплатно в хорошем качестве
    Вы не можете начинать темы
    Вы не можете отвечать на сообщения
    Вы не можете редактировать свои сообщения
    Вы не можете удалять свои сообщения
    Вы не можете голосовать в опросах
    Вы не можете прикреплять файлы к сообщениям
    Вы можете скачивать файлы
    Нахимовцы [2021, Приключения, детский, WEB-DL 1080p] смотреть онлайн, скачать торрент picoco.icu