Доктор Стрэндж

Лицензия

Добыча

Дубляж

Уэнсдэй

1 сезон

Тор

Дубляж

В эфире

Дубляж

Там, где раки поют

MVO

Властелин колец

1 сезон

Deluxe

pack

Рекомендуем

30

Пиратка

ВАЖНО

ВАЖНО

Ghostwire

Пиратка

jed

RePack

nioh2

RePack

RDR2

RePack

NEED FOR SPEED™ PAYBACK

RePack

скачать торрент

Кинопоиск HD

Острые козырьки 6 сезон

6 сезон

FAR CRY 6

RePack

скачать торрент

Лицензия

скачать торрент

MVO

1

1 сезон

скачать торрент

1 сезон

скачать торрент

Лицензия

  

Заключенный Зеро / Нулевой заключенный / Проклятый остров / Patients of a Saint / Inmate Zero (Расселл Оуэн) [2020, Ужасы, WEB-DL 1080p] Дубляж [iTunes]

Заключенный Зеро через торрент pb.wtf

Раздают: 2 [ 0.2 KB/s ]
Размер: 3.98 GB | Добавлен: 2 мес. 26 д. назад | Торрент скачан:140 раз
Смотреть онлайн | Скачать   

08-09-2022 17:35 Заключенный Зеро Скачать торрент  

Заключенный Зеро / Нулевой заключенный / Проклятый остров
Patients of a Saint / Inmate Zero

Год выпуска: 2020
Страна: Великобритания
Выпущено: Golden Crab Film Production, Nubian Film Production
Жанр: Ужасы
Продолжительность: 01:46:31
Перевод: Дублированный | iTunes
Субтитры: Английские

Режиссер: Расселл Оуэн

rating

В ролях: Мег Александра, Габз Баркер, Кейт Белл, Рэймонд Бетли, Анастасия Бородина, Сара Бразье, Джессика Шанелье, Том Клегг, Стэйси Линн Кроу, Черри-Роза Каллен

Описание: На острове Святого Леонарда в Северной Атлантике расположена тюрьма для самых жестоких преступников в мире. Там их подвергают экстремальным медицинским экспериментам. Когда один из экспериментов выходит из-под контроля, это приводит к свирепствующей эпидемии, которая обращает зараженных в ужасных существ. Весь остров превратился в кишащий заразой лабиринт, в котором заключенные, охранники и врач должны объединиться, чтобы выжить.

Качество: WEB-DL 1080p
Формат: MKV

Видео: MPEG-4 AVC, ~ 4580 Kb/s, 1908x790, 23.976 fps
Аудио#1 Rus: 48 kHz, AC3 Dolby Digital, 3/2 (L, C, R, l, r) + LFE ch, ~384 Kbps
Аудио#2 Eng: 48 kHz, AC3 Dolby Digital, 3/2 (L, C, R, l, r) + LFE ch, ~384 Kbps
скриншот  скриншот  скриншот  скриншот  

General
Unique ID: 220596135718922914290249692565882831179 (0xA5F54534FBD97BF7867850419508814B)
Complete name: D:Proklyatyiy.ostrov.2020.WEB-DL.1080p.ELEKTRI4KA.UNIONGANG.mkv
Format: Matroska
Format version: Version 4
File size: 3.98 GiB
Duration: 1 h 46 min
Overall bit rate: 5 350 kb/s
Movie name: Proklyatyiy.ostrov.2020.WEB-DL.1080p.ELEKTRI4KA.UNIONGANG.
Encoded date: UTC 2022-09-08 11:01:14
Writing application: mkvmerge v8.3.0 ('Over the Horizon') 32bit
Writing library: libebml v1.3.1 + libmatroska v1.4.2

Video
ID: 1
Format: AVC
Format/Info: Advanced Video Codec
Format profile: [email protected]
Format settings: CABAC / 5 Ref Frames
Format settings, CABAC: Yes
Format settings, Reference frames: 5 frames
Codec ID: V_MPEG4/ISO/AVC
Duration: 1 h 46 min
Bit rate: 4 580 kb/s
Width: 1 908 pixels
Height: 790 pixels
Display aspect ratio: 2.40:1
Frame rate mode: Constant
Frame rate: 23.976 FPS
Color space: YUV
Chroma subsampling: 4:2:0
Bit depth: 8 bits
Scan type: Progressive
Bits/(Pixel*Frame): 0.127
Stream size: 3.41 GiB (86%)
Language: English
Default: Yes
Forced: No
Color range: Limited
Color primaries: BT.709
Transfer characteristics: BT.709
Matrix coefficients: BT.709

Audio #1
ID: 2
Format: AC-3
Format/Info: Audio Coding 3
Commercial name: Dolby Digital
Codec ID: A_AC3
Duration: 1 h 46 min
Bit rate mode: Constant
Bit rate: 384 kb/s
Channel(s): 6 channels
Channel layout: L R C LFE Ls Rs
Sampling rate: 48.0 kHz
Frame rate: 31.250 FPS (1536 SPF)
Compression mode: Lossy
Delay relative to video: -42 ms
Stream size: 293 MiB (7%)
Title: Дубляж (iTunes)
Language: Russian
Service kind: Complete Main
Default: Yes
Forced: Yes

Audio #2
ID: 3
Format: AC-3
Format/Info: Audio Coding 3
Commercial name: Dolby Digital
Codec ID: A_AC3
Duration: 1 h 46 min
Bit rate mode: Constant
Bit rate: 384 kb/s
Channel(s): 6 channels
Channel layout: L R C LFE Ls Rs
Sampling rate: 48.0 kHz
Frame rate: 31.250 FPS (1536 SPF)
Compression mode: Lossy
Delay relative to video: -42 ms
Stream size: 293 MiB (7%)
Title: Original
Language: English
Service kind: Complete Main
Default: No
Forced: No

Text
ID: 4
Format: UTF-8
Codec ID: S_TEXT/UTF8
Codec ID/Info: UTF-8 Plain Text
Duration: 1 h 38 min
Bit rate: 53 b/s
Count of elements: 947
Stream size: 38.4 KiB (0%)
Language: English
Default: No
Forced: No

Menu
00:00:00.000: en:1
00:03:02.000: en:2
00:13:08.000: en:3
00:25:11.000: en:4
00:36:00.000: en:5
00:48:06.000: en:6
00:56:59.000: en:7
01:07:04.000: en:8
01:20:04.000: en:9
01:30:40.000: en:10
01:41:16.000: en:11




Скачать Заключенный Зеро через торрент https://i120.fastpic.org/big/2022/0908/31/5ffa0fb0533cbdb1ac2defa471a8f531.jpg Скачать, смотреть онлайн Заключенный Зеро бесплантно в хорошем качестве Описание: На острове Святого Леонарда в Северной Атлантике расположена тюрьма для самых жестоких преступников в мире. Там их подвергают ... 10 10 5
Торрент: Зарегистрирован [2022-09-08 17:35] · скачан: 140 раз
Статус: √ проверено
Размер: 3.98 GB
Как cкачать? Как скачать Заключенный Зеро через торрент | UTorrent

% Раздел Тема Автор DL S | L
Фильмы 2019-2020 [DVDrip, WEB-DLRip, HDrip] (DUB, MVO) [ 1.46 GB ] Заключенный Зеро / Нулевой заключенный / Проклятый остров / Patients of a Saint / Inmate Zero | iTunes | DLRip bober100 Скачать
3 | 0
Фильмы 2019-2020 [DVDrip, WEB-DLRip, HDrip] (DUB, MVO) [ 1.88 GB ] Заключенный Зеро / Нулевой заключенный / Проклятый остров / Patients of a Saint / Inmate Zero | iTunes | DLRip-AVC bober100 Скачать
2 | 0

28-11-2019 20:33  


Отключить вcю реклaмy на сайте, в т.ч. и в плеере онлайн просмотра!

    Дорогой пользователь! Огромная просьба, поблагодарите релизера, оцените раздачу и оставьте свои комментарий, если Вы скачали Заключенный Зеро через торрент бесплатно!!
    Комментировать посты могут только пользователи прошедшие не сложную регистрацию
    Показать сообщения:    


    Заключенный Зеро через торрент
    Скачать бесплатно Заключенный Зеро
    Заключенный Зеро скачать торрент
    Заключенный Зеро смотреть онлайн
    Cкачать фильм Заключенный Зеро бесплатно
    Заключенный Зеро скачать торрент в хорошем качестве
    Заключенный Зеро смотреть онлайн бесплатно в хорошем качестве
    Вы не можете начинать темы
    Вы не можете отвечать на сообщения
    Вы не можете редактировать свои сообщения
    Вы не можете удалять свои сообщения
    Вы не можете голосовать в опросах
    Вы не можете прикреплять файлы к сообщениям
    Вы можете скачивать файлы
    Заключенный Зеро / Нулевой заключенный / Проклятый остров / Patients of a Saint / Inmate Zero [2020, Ужасы, WEB-DL 1080p] Дубляж [iTunes] смотреть онлайн, скачать торрент picoco.icu