Достать ножи: Стеклянная луковица

MVO

Добыча

Дубляж

Уэнсдэй

1 сезон

Тор

Дубляж

13 клиническая

1 сезон

Жестокая ночь

MVO

Одни из нас

1 сезон

Deluxe

pack

Рекомендуем

30

Пиратка

ВАЖНО

ВАЖНО

Ghostwire

Пиратка

jed

RePack

nioh2

RePack

RDR2

RePack

NEED FOR SPEED™ PAYBACK

RePack

скачать торрент

Кинопоиск HD

Острые козырьки 6 сезон

6 сезон

FAR CRY 6

RePack

скачать торрент

Лицензия

скачать торрент

MVO

1

1 сезон

скачать торрент

1 сезон

скачать торрент

Лицензия

  

Заключенный Зеро / Нулевой заключенный / Проклятый остров / Patients of a Saint / Inmate Zero (Расселл Оуэн) [2020, Ужасы, WEB-DLRip-AVC] Дубляж [iTunes]

Заключенный Зеро через торрент pb.wtf

Раздают: 1 [ 0 KB/s ]
Размер: 1.88 GB | Добавлен: 4 мес. 25 д. назад | Торрент скачан:66 раз
Смотреть онлайн | Скачать | Поддержите нас   

08-09-2022 18:39 Заключенный Зеро Скачать торрент  

Заключенный Зеро / Нулевой заключенный / Проклятый остров
Patients of a Saint / Inmate Zero

Год выпуска: 2020
Страна: Великобритания
Выпущено: Golden Crab Film Production, Nubian Film Production
Жанр: Ужасы
Продолжительность: 01:46:31
Перевод: Дублированный | iTunes
Субтитры: Английские

Режиссер: Расселл Оуэн

rating

В ролях: Мег Александра, Габз Баркер, Кейт Белл, Рэймонд Бетли, Анастасия Бородина, Сара Бразье, Джессика Шанелье, Том Клегг, Стэйси Линн Кроу, Черри-Роза Каллен

Описание: На острове Святого Леонарда в Северной Атлантике расположена тюрьма для самых жестоких преступников в мире. Там их подвергают экстремальным медицинским экспериментам. Когда один из экспериментов выходит из-под контроля, это приводит к свирепствующей эпидемии, которая обращает зараженных в ужасных существ. Весь остров превратился в кишащий заразой лабиринт, в котором заключенные, охранники и врач должны объединиться, чтобы выжить.

Качество: WEB-DLRip-AVC
Формат: MKV

Видео: MPEG-4 AVC, 1024x424 at 23.976 fps, [email protected], ~1758 kbps
Аудио#1 Rus: 48 kHz, AC3 Dolby Digital, 3/2 (L, C, R, l, r) + LFE ch, ~384 Kbps
Аудио#2 Eng: 48 kHz, AC3 Dolby Digital, 3/2 (L, C, R, l, r) + LFE ch, ~384 Kbps
скриншот  скриншот  скриншот  скриншот  

x264 [info]: frame I:1324 Avg QP:14.33 size: 52515
x264 [info]: frame P:37252 Avg QP:16.14 size: 19965
x264 [info]: frame B:114668 Avg QP:18.44 size: 5159
x264 [info]: consecutive B-frames: 2.3% 3.0% 6.8% 50.6% 13.0% 19.3% 2.6% 1.4% 0.3% 0.3% 0.4%

General
Unique ID : 278227250878844666133073535655501916663 (0xD1509E8FC45BA36FC6187CB81FB869F7)
Complete name : K:Patients.of.a.Saint.2020.WEB-DLRip.x264.seleZen.mkv
Format : Matroska
Format version : Version 4
File size : 1.88 GiB
Duration : 1 h 46 min
Overall bit rate : 2 529 kb/s
Movie name : Patients.of.a.Saint.2020.WEB-DLRip.x264.seleZen
Encoded date : UTC 2022-09-08 14:03:27
Writing application : mkvmerge v70.0.0 ('Caught A Lite Sneeze') 64-bit
Writing library : libebml v1.4.2 + libmatroska v1.6.4
Cover : Yes
Attachments : cover.jpg / small_cover.jpg

Video
ID : 1
Format : AVC
Format/Info : Advanced Video Codec
Format profile : [email protected]
Format settings : CABAC / 14 Ref Frames
Format settings, CABAC : Yes
Format settings, Reference : 14 frames
Codec ID : V_MPEG4/ISO/AVC
Duration : 1 h 46 min
Bit rate : 1 758 kb/s
Width : 1 024 pixels
Height : 424 pixels
Display aspect ratio : 2.40:1
Frame rate mode : Constant
Frame rate : 23.976 (24000/1001) FPS
Color space : YUV
Chroma subsampling : 4:2:0
Bit depth : 8 bits
Scan type : Progressive
Bits/(Pixel*Frame) : 0.169
Stream size : 1.31 GiB (70%)
Title : -=DoMiNo=-
Writing library : x264 core 164 by -=DoMiNo=-
Encoding settings : cabac=1 / ref=14 / deblock=1:-3:-2 / analyse=0x3:0x133 / me=umh / subme=10 / psy=1 / psy_rd=1.02:0.15 / mixed_ref=1 / me_range=32 / chroma_me=1 / trellis=2 / 8x8dct=1 / cqm=0 / deadzone=21,11 / fast_pskip=0 / chroma_qp_offset=-3 / threads=17 / lookahead_threads=3 / sliced_threads=0 / nr=0 / decimate=0 / interlaced=0 / bluray_compat=0 / constrained_intra=0 / bframes=10 / b_pyramid=2 / b_adapt=2 / b_bias=0 / direct=1 / weightb=1 / open_gop=0 / weightp=2 / keyint=250 / keyint_min=23 / scenecut=40 / intra_refresh=0 / rc_lookahead=60 / rc=crf / mbtree=0 / crf=19.0 / qcomp=0.70 / qpmin=0 / qpmax=69 / qpstep=4 / vbv_maxrate=50000 / vbv_bufsize=62500 / crf_max=0.0 / nal_hrd=none / filler=0 / ip_ratio=1.40 / pb_ratio=1.30 / aq=3:0.90
Language : English
Default : Yes
Forced : No
Color range : Limited
Color primaries : BT.709
Transfer characteristics : BT.709
Matrix coefficients : BT.709

Audio #1
ID : 2
Format : AC-3
Format/Info : Audio Coding 3
Commercial name : Dolby Digital
Codec ID : A_AC3
Duration : 1 h 46 min
Bit rate mode : Constant
Bit rate : 384 kb/s
Channel(s) : 6 channels
Channel layout : L R C LFE Ls Rs
Sampling rate : 48.0 kHz
Frame rate : 31.250 FPS (1536 SPF)
Compression mode : Lossy
Stream size : 293 MiB (15%)
Title : Дубляж
Language : Russian
Service kind : Complete Main
Default : Yes
Forced : Yes

Audio #2
ID : 3
Format : AC-3
Format/Info : Audio Coding 3
Commercial name : Dolby Digital
Codec ID : A_AC3
Duration : 1 h 46 min
Bit rate mode : Constant
Bit rate : 384 kb/s
Channel(s) : 6 channels
Channel layout : L R C LFE Ls Rs
Sampling rate : 48.0 kHz
Frame rate : 31.250 FPS (1536 SPF)
Compression mode : Lossy
Stream size : 293 MiB (15%)
Title : Original
Language : English
Service kind : Complete Main
Default : No
Forced : No

Text
ID : 4
Format : UTF-8
Codec ID : S_TEXT/UTF8
Codec ID/Info : UTF-8 Plain Text
Duration : 1 h 38 min
Bit rate : 53 b/s
Count of elements : 947
Stream size : 38.4 KiB (0%)
Title : Full
Language : English
Default : No
Forced : No

Menu
00:00:00.000 : en:1
00:03:02.000 : en:2
00:13:08.000 : en:3
00:25:11.000 : en:4
00:36:00.000 : en:5
00:48:06.000 : en:6
00:56:59.000 : en:7
01:07:04.000 : en:8
01:20:04.000 : en:9
01:30:40.000 : en:10
01:41:16.000 : en:11




Скачать Заключенный Зеро через торрент https://i120.fastpic.org/big/2022/0908/31/5ffa0fb0533cbdb1ac2defa471a8f531.jpg Скачать, смотреть онлайн Заключенный Зеро бесплантно в хорошем качестве Описание: На острове Святого Леонарда в Северной Атлантике расположена тюрьма для самых жестоких преступников в мире. Там их подвергают ... 10 10 5
Торрент: Зарегистрирован [2022-09-08 18:39] · скачан: 66 раз
Статус: √ проверено
Размер: 1.88 GB
Как cкачать? Как скачать Заключенный Зеро через торрент | UTorrent

% Раздел Тема Автор DL S | L
Фильмы 2019-2020 [DVDrip, WEB-DLRip, HDrip] (DUB, MVO) [ 1.46 GB ] Заключенный Зеро / Нулевой заключенный / Проклятый остров / Patients of a Saint / Inmate Zero | iTunes | DLRip bober100 Скачать
2 | 0
Фильмы (WEB-DL 720p, 1080p) [ 3.98 GB ] Заключенный Зеро / Нулевой заключенный / Проклятый остров / Patients of a Saint / Inmate Zero | iTunes | 1080p bober100 Скачать
2 | 0

28-11-2019 20:33  


Отключить вcю реклaмy на сайте, в т.ч. и в плеере онлайн просмотра!

    Дорогой пользователь! Огромная просьба, поблагодарите релизера, оцените раздачу и оставьте свои комментарий, если Вы скачали Заключенный Зеро через торрент бесплатно!!
    Комментировать посты могут только пользователи прошедшие не сложную регистрацию
    Показать сообщения:    


    Заключенный Зеро через торрент
    Скачать бесплатно Заключенный Зеро
    Заключенный Зеро скачать торрент
    Заключенный Зеро смотреть онлайн
    Cкачать фильм Заключенный Зеро бесплатно
    Заключенный Зеро скачать торрент в хорошем качестве
    Заключенный Зеро смотреть онлайн бесплатно в хорошем качестве
    Вы не можете начинать темы
    Вы не можете отвечать на сообщения
    Вы не можете редактировать свои сообщения
    Вы не можете удалять свои сообщения
    Вы не можете голосовать в опросах
    Вы не можете прикреплять файлы к сообщениям
    Вы можете скачивать файлы
    Заключенный Зеро / Нулевой заключенный / Проклятый остров / Patients of a Saint / Inmate Zero [2020, Ужасы, WEB-DLRip-AVC] Дубляж [iTunes] смотреть онлайн, скачать торрент picoco.icu